Tags
Language
Tags

Otto Klemperer - Wagner: Der fliegende Holländer (1968/2017) [Official Digital Download 24/96]

Posted By: SERTiL
Otto Klemperer - Wagner: Der fliegende Holländer (1968/2017) [Official Digital Download 24/96]

Otto Klemperer - Wagner: Der fliegende Holländer (1968/2017)
FLAC (tracks) 24-bit/96 kHz | Time - 151:58 minutes | 2.97 GB
Studio Master, Official Digital Download | Artwork: Front Cover

When this recording of Der fliegende Holländer first appeared in 1968, Gramophone magazine declared it “as perfect as we have any right to demand”. Otto Klemperer conceives the score on an epic scale, and Theo Adam, reaching deep into the heart of the world-weary Dutchman, meets his match in the young and incandescent Senta of Anja Silja.

„One of the great shames of recording history is that Otto Klemperer had so few opportunities to record Wagner during his long career. The great German conductor did record most of the composer's overtures and preludes, as well as a heartbreakingly beautiful Siegfried Idyll, but of the stage works, he recorded only one act of Die Walküre, Wotan's Farewell, and two complete operas: Lohengrin, in gratingly poor sound from Budapest in 1948, and this version of Der fliegende Holländer in very fine stereo sound from London in 1968. An even greater shame is that this performance is hardly representative of the conductor at his best; in fact, it could be said that it is very nearly Klemperer at his worst. The grand old man of the podium was 83 when this recording was made, and his performances had been going downhill for several years as the result of medical problems. The performance's lack of drive, cohesion, unity, and especially drama undermines it. There are good things here, though, mostly from the singers, but occasionally from Klemperer. Theo Adam is a worthy Dutchman, while Martti Talvela is an impressive Daland and Anja Silja is a fetching Senta. One can hear the heroic Klemperer at some points – the storm music is persuasive and the transformation at the close is effective – but overall, it is a disappointing performance.“ (James Leonard, AMG)

„This performance is as perfect as we have any right to demand. Klemperer’s magisterial interpretation of the opera has a blazing intensity, the orchestra plays superbly and the cast give of their considerable best.“ (Gramophone)

Tracklist:

Richard Wagner (1813 - 1883)

01. Der fliegende Holländer, WWV 63: Overture
02. Der fliegende Holländer, WWV 63, Act 1: "Hojohe! Hallojo!" (Chorus, Daland, Steuermann)
03. Der fliegende Holländer, WWV 63, Act 1: "Mit Gewitter und Sturm aus fernem Meer" (Steuermann)
04. Der fliegende Holländer, WWV 63, Act 1: "Die Frist ist um" (Höllander)
05. Der fliegende Holländer, WWV 63, Act 1: "Wie oft in Meeres tiefsten Schlund" (Höllander)
06. Der fliegende Holländer, WWV 63, Act 1: "Dich frage ich, gepries'ner Engel Gottes" (Holländer)
07. Der fliegende Holländer, WWV 63, Act 1: "Nur eine Hoffnung soll mir bleiben" (Holländer, Chorus)
08. Der fliegende Holländer, WWV 63, Act 1: "He! Holla! Steuermann!" (Daland, Steuermann)
09. Der fliegende Holländer, WWV 63, Act 1: "Weit komm'ich her" (Holländer, Daland)
10. Der fliegende Holländer, WWV 63, Act 1: "Durch Sturm und bösen Wind verschlagen" (Holländer)
11. Der fliegende Holländer, WWV 63, Act 1: "Wie wunderbar! Soll deinem Wort ich glauben?" (Daland, Höllander)
12. Der fliegende Holländer, WWV 63, Act 1: "Was muss ich hören? … Hast du eine Tochter?" (Daland, Höllander)
13. Der fliegende Holländer, WWV 63, Act 1: "Wohl! Fremdling, hab'ich eine schöne Tochter" (Daland, Holländer)
14. Der fliegende Holländer, WWV 63, Act 1: "Wenn aus der Qualen Schreckgewalten" (Daland, Holländer)
15. Der fliegende Holländer, WWV 63, Act 1: "Südwind! Südwind!" (Steuermann, Chorus, Daland, Holländer)
16. Der fliegende Holländer, WWV 63, Act 1: "Mit Gewitter und Sturm aus fernem Meer" (Chorus)
17. Der fliegende Holländer, WWV 63, Act 2: Introduction
18. Der fliegende Holländer, WWV 63, Act 2: "Summ und brumm, du gutes Rädchen" (Chorus, Mary)
19. Der fliegende Holländer, WWV 63, Act 2: "Du böses Kind, wenn du nicht spinnst" (Mary, Chorus, Senta)
20. Der fliegende Holländer, WWV 63, Act 2: "O Macht dem dummen Lied ein Ende" (Mary, Chorus, Senta)
21. Der fliegende Holländer, WWV 63, Act 2: Johohoe! … Traft ihr das Schiff im Meere an" (Senta)
22. Der fliegende Holländer, WWV 63, Act 2: Bei bösem Wind und Sturmes Wut" (Senta, Chorus)
23. Der fliegende Holländer, WWV 63, Act 2: "Vor Anker alle sieben Jahr'" (Senta)
24. Der fliegende Holländer, WWV 63, Act 2: "Ach! Wo weilt sie" (Chorus, Senta, Mary, Erik)
25. Der fliegende Holländer, WWV 63, Act 2: "Bleib, Senta! Bleib nur einen Augenblick!" (Erik, Senta)
26. Der fliegende Holländer, WWV 63, Act 2: "Mein Herz, voll Treue bis zum Sterben" (Erik, Senta)
27. Der fliegende Holländer, WWV 63, Act 2: "Wie? Zweifelst du an meinem Herzen?" (Erik, Senta)
28. Der fliegende Holländer, WWV 63, Act 2: "Fühlst du den Schmerz, den tiefen Gram" (Erik, Senta)
29. Der fliegende Holländer, WWV 63, Act 2: "Auf hohem Felsen lag ich träumend" (Erik, Senta)
30. Der fliegende Holländer, WWV 63, Act 2: "Ach möchtest du, bleicher Seemann" (Senta)
31. Der fliegende Holländer, WWV 63, Act 2: "Mein Kind, du siehst mich auf der Schwelle" (Daland, Senta)
32. Der fliegende Holländer, WWV 63, Act 2: "Mögst du, mein Kind, den fremden Mann" (Daland)
33. Der fliegende Holländer, WWV 63, Act 2: "Doch keines spricht" (Daland)
34. Der fliegende Holländer, WWV 63, Act 2: "Wie aus der Ferne längst vergangner Zeiten" (Holländer)
35. Der fliegende Holländer, WWV 63, Act 2: "Versank ich jetzt in wunderbares Träumen" (Senta, Holländer)
36. Der fliegende Holländer, WWV 63, Act 2: "Wirst du des Vaters Wahl nicht schelten?" (Senta, Holländer)
37. Der fliegende Holländer, WWV 63, Act 2: "Du bist ein Engel!" (Senta, Holländer)
38. Der fliegende Holländer, WWV 63, Act 2: "Ein heil'ger Balsam meinen Wunden" (Senta, Holländer)
39. Der fliegende Holländer, WWV 63, Act 2: "Verzeiht! Mein Volk hält draussen sich nicht mehr" (Daland, Senta, Holländer)
40. Der fliegende Holländer, WWV 63, Act 3: Entr'acte-"Steuermann, lass die Wacht!" (Chorus) … Tanz
41. Der fliegende Holländer, WWV 63, Act 3: "Mein! Seht doch an! Sie tanzen gar!" (Chorus, Steuermann)
42. Der fliegende Holländer, WWV 63, Act 3: "Juchhe! Da gibt's die Fülle!" (Chorus, Steuermann)
43. Der fliegende Holländer, WWV 63, Act 3: "Johohoe! Johohoe!" (Chorus)
44. Der fliegende Holländer, WWV 63, Act 3: "Was muss ich hören, Gott, was muss ich sehn!" (Erik, Senta)
45. Der fliegende Holländer, WWV 63, Act 3: "Willst jenes Tags du nich dicht mehr entsinnen" (Erik)
46. Der fliegende Holländer, WWV 63, Act 3: "Verloren! Ach, verloren!" (Holländer, Erik, Senta)
47. Der fliegende Holländer, WWV 63, Act 3: "Erfahre das Geschick, vor dem ich dich bewahr'!" (Holländer)
48. Der fliegende Holländer, WWV 63, Act 3: "Zu Hilfe! Rettet, rettet sie!" (Erik, Senta, Daland, Mary, Chorus, Holländer)

Personnel:
Theo Adam (Dutchman)
Anja Silja (Senta)
Martti Talvela (Daland)
Ernst Kozub (Erik)
Annelies Burmeister (Mary)
Gerhard Unger (Steersman)
BBC Chorus & New Philharmonia Orchestra
Otto Klemperer, conductor

Remastered by Ian Jones at Abbey Road Studios

Digitally remastered

foobar2000 1.3.7 / Dynamic Range Meter 1.1.1
log date: 2017-10-29 12:50:18

––––––––––––––––––––––––––––––––––––––––
Analyzed: Otto Klemperer / Wagner: Der fliegende Holländer
––––––––––––––––––––––––––––––––––––––––

DR Peak RMS Duration Track
––––––––––––––––––––––––––––––––––––––––
DR10 -0.77 dB -15.52 dB 11:30 01-Der fliegende Holländer, WWV 63: Overture
DR11 -0.35 dB -18.97 dB 5:25 02-Der fliegende Holländer, WWV 63, Act 1: "Hojohe! Hallojo!" (Chorus, Daland, Steuermann)
DR12 -0.94 dB -20.05 dB 6:18 03-Der fliegende Holländer, WWV 63, Act 1: "Mit Gewitter und Sturm aus fernem Meer" (Steuermann)
DR11 -1.62 dB -20.21 dB 2:52 04-Der fliegende Holländer, WWV 63, Act 1: "Die Frist ist um" (Höllander)
DR10 -1.77 dB -16.54 dB 2:39 05-Der fliegende Holländer, WWV 63, Act 1: "Wie oft in Meeres tiefsten Schlund" (Höllander)
DR11 -0.56 dB -18.43 dB 2:45 06-Der fliegende Holländer, WWV 63, Act 1: "Dich frage ich, gepries'ner Engel Gottes" (Holländer)
DR9 -0.27 dB -14.56 dB 3:12 07-Der fliegende Holländer, WWV 63, Act 1: "Nur eine Hoffnung soll mir bleiben" (Holländer, Chorus)
DR12 -4.93 dB -21.99 dB 2:12 08-Der fliegende Holländer, WWV 63, Act 1: "He! Holla! Steuermann!" (Daland, Steuermann)
DR15 -6.23 dB -26.97 dB 1:46 09-Der fliegende Holländer, WWV 63, Act 1: "Weit komm'ich her" (Holländer, Daland)
DR12 -5.94 dB -23.69 dB 2:42 10-Der fliegende Holländer, WWV 63, Act 1: "Durch Sturm und bösen Wind verschlagen" (Holländer)
DR12 -1.61 dB -20.97 dB 2:39 11-Der fliegende Holländer, WWV 63, Act 1: "Wie wunderbar! Soll deinem Wort ich glauben?" (Daland, Höllander)
DR10 -1.42 dB -16.65 dB 2:59 12-Der fliegende Holländer, WWV 63, Act 1: "Was muss ich hören? … Hast du eine Tochter?" (Daland, Höllander)
DR11 -1.48 dB -18.13 dB 2:58 13-Der fliegende Holländer, WWV 63, Act 1: "Wohl! Fremdling, hab'ich eine schöne Tochter" (Daland, Holländer)
DR10 -1.47 dB -15.43 dB 2:45 14-Der fliegende Holländer, WWV 63, Act 1: "Wenn aus der Qualen Schreckgewalten" (Daland, Holländer)
DR9 -1.72 dB -15.74 dB 2:05 15-Der fliegende Holländer, WWV 63, Act 1: "Südwind! Südwind!" (Steuermann, Chorus, Daland, Holländer)
DR8 -0.10 dB -12.03 dB 2:20 16-Der fliegende Holländer, WWV 63, Act 1: "Mit Gewitter und Sturm aus fernem Meer" (Chorus)
DR9 -1.85 dB -15.28 dB 2:03 17-Der fliegende Holländer, WWV 63, Act 2: Introduction
DR11 -3.54 dB -18.57 dB 4:36 18-Der fliegende Holländer, WWV 63, Act 2: "Summ und brumm, du gutes Rädchen" (Chorus, Mary)
DR11 -2.37 dB -18.72 dB 3:26 19-Der fliegende Holländer, WWV 63, Act 2: "Du böses Kind, wenn du nicht spinnst" (Mary, Chorus, Senta)
DR12 -3.09 dB -22.30 dB 2:06 20-Der fliegende Holländer, WWV 63, Act 2: "O Macht dem dummen Lied ein Ende" (Mary, Chorus, Senta)
DR11 -3.21 dB -20.33 dB 3:09 21-Der fliegende Holländer, WWV 63, Act 2: Johohoe! … Traft ihr das Schiff im Meere an" (Senta)
DR12 -3.29 dB -20.87 dB 2:25 22-Der fliegende Holländer, WWV 63, Act 2: Bei bösem Wind und Sturmes Wut" (Senta, Chorus)
DR12 -2.56 dB -20.56 dB 1:13 23-Der fliegende Holländer, WWV 63, Act 2: "Vor Anker alle sieben Jahr'" (Senta)
DR10 -1.80 dB -16.10 dB 3:52 24-Der fliegende Holländer, WWV 63, Act 2: "Ach! Wo weilt sie" (Chorus, Senta, Mary, Erik)
DR10 -2.92 dB -17.58 dB 0:49 25-Der fliegende Holländer, WWV 63, Act 2: "Bleib, Senta! Bleib nur einen Augenblick!" (Erik, Senta)
DR12 -2.00 dB -18.92 dB 3:37 26-Der fliegende Holländer, WWV 63, Act 2: "Mein Herz, voll Treue bis zum Sterben" (Erik, Senta)
DR12 -2.58 dB -18.26 dB 2:34 27-Der fliegende Holländer, WWV 63, Act 2: "Wie? Zweifelst du an meinem Herzen?" (Erik, Senta)
DR12 -2.34 dB -20.37 dB 1:58 28-Der fliegende Holländer, WWV 63, Act 2: "Fühlst du den Schmerz, den tiefen Gram" (Erik, Senta)
DR10 -1.24 dB -17.16 dB 3:10 29-Der fliegende Holländer, WWV 63, Act 2: "Auf hohem Felsen lag ich träumend" (Erik, Senta)
DR12 -0.95 dB -27.39 dB 1:30 30-Der fliegende Holländer, WWV 63, Act 2: "Ach möchtest du, bleicher Seemann" (Senta)
DR14 -4.58 dB -26.03 dB 1:51 31-Der fliegende Holländer, WWV 63, Act 2: "Mein Kind, du siehst mich auf der Schwelle" (Daland, Senta)
DR13 -2.23 dB -20.17 dB 3:59 32-Der fliegende Holländer, WWV 63, Act 2: "Mögst du, mein Kind, den fremden Mann" (Daland)
DR11 -2.04 dB -19.97 dB 2:57 33-Der fliegende Holländer, WWV 63, Act 2: "Doch keines spricht" (Daland)
DR14 -4.19 dB -24.31 dB 3:44 34-Der fliegende Holländer, WWV 63, Act 2: "Wie aus der Ferne längst vergangner Zeiten" (Holländer)
DR10 -0.95 dB -16.98 dB 4:16 35-Der fliegende Holländer, WWV 63, Act 2: "Versank ich jetzt in wunderbares Träumen" (Senta, Holländer)
DR11 -2.01 dB -18.96 dB 3:06 36-Der fliegende Holländer, WWV 63, Act 2: "Wirst du des Vaters Wahl nicht schelten?" (Senta, Holländer)
DR10 -2.32 dB -18.20 dB 2:55 37-Der fliegende Holländer, WWV 63, Act 2: "Du bist ein Engel!" (Senta, Holländer)
DR9 -0.94 dB -14.50 dB 2:28 38-Der fliegende Holländer, WWV 63, Act 2: "Ein heil'ger Balsam meinen Wunden" (Senta, Holländer)
DR9 -0.69 dB -13.88 dB 2:27 39-Der fliegende Holländer, WWV 63, Act 2: "Verzeiht! Mein Volk hält draussen sich nicht mehr" (Daland, Senta, Holländer)
DR10 -0.32 dB -13.58 dB 3:52 40-Der fliegende Holländer, WWV 63, Act 3: Entr'acte-"Steuermann, lass die Wacht!" (Chorus) … Tanz
DR10 -1.24 dB -16.77 dB 6:41 41-Der fliegende Holländer, WWV 63, Act 3: "Mein! Seht doch an! Sie tanzen gar!" (Chorus, Steuermann)
DR9 -0.83 dB -14.17 dB 1:55 42-Der fliegende Holländer, WWV 63, Act 3: "Juchhe! Da gibt's die Fülle!" (Chorus, Steuermann)
DR9 -0.10 dB -12.67 dB 4:18 43-Der fliegende Holländer, WWV 63, Act 3: "Johohoe! Johohoe!" (Chorus)
DR11 -2.15 dB -17.51 dB 2:44 44-Der fliegende Holländer, WWV 63, Act 3: "Was muss ich hören, Gott, was muss ich sehn!" (Erik, Senta)
DR11 -5.04 dB -20.22 dB 3:10 45-Der fliegende Holländer, WWV 63, Act 3: "Willst jenes Tags du nich dicht mehr entsinnen" (Erik)
DR9 -1.42 dB -12.81 dB 2:50 46-Der fliegende Holländer, WWV 63, Act 3: "Verloren! Ach, verloren!" (Holländer, Erik, Senta)
DR10 -1.47 dB -16.93 dB 1:56 47-Der fliegende Holländer, WWV 63, Act 3: "Erfahre das Geschick, vor dem ich dich bewahr'!" (Holländer)
DR9 -1.03 dB -13.71 dB 3:39 48-Der fliegende Holländer, WWV 63, Act 3: "Zu Hilfe! Rettet, rettet sie!" (Erik, Senta, Daland, Mary, Chorus, Holländer)
––––––––––––––––––––––––––––––––––––––––

Number of tracks: 48
Official DR value: DR11

Samplerate: 96000 Hz
Channels: 2
Bits per sample: 24
Bitrate: 2865 kbps
Codec: FLAC
================================================================================


Thanks to the Original customer.