Wiener Jenesse Chor & Günther Theuring - Eisler - Deutsche Sinfonie, Op. 50 (2021) [Official Digital Download]

Posted By: pyatak
Wiener Jenesse Chor & Günther Theuring - Eisler - Deutsche Sinfonie, Op. 50 (2021) [Official Digital Download]

Wiener Jenesse Chor & Günther Theuring - Eisler - Deutsche Sinfonie, Op. 50 (2021) [Official Digital Download]
FLAC (tracks) 24-bit/48 kHz | Front Cover | Time - 66:36 minutes | 644 MB
Classical | Label: CapriccioNR, Official Digital Download

Of particular importance to Eisler was the principle of synthesis, working with a variety of musical aesthetics, and merging them to an autonomous whole albeit always with an eye to also wanting to change the world with his music. The October Revolution of 1917 and the assumption of power by the Bolsheviks in Russia shaped young Hanns Eisler already for the rest of his life. Later on, in the 1930s after all, there was no topic that preoccupied him more, during the years of exile, than the sustained protest against National Socialism. Eisler wanted to make a musical stance against Fascism with his Opus 50; he wanted to show together with his collaborating librettist Brecht that there was not just a Germany Nazis but another, better Germany driven into Exile or interned in concentration camps. The Deutsche Sinfonie is arguably Eisler's most important composition; she is unique in its ingenious combination of symphony, cantata, and oratorio.

TRACKLIST

01. Wiener Jenesse Chor, ORF Vienna Radio Symphony Orchestra & Günther Theuring - Eisler: Deutsche Sinfonie, Op. 50: No. 1, Präludium
02. Wiener Jenesse Chor, ORF Vienna Radio Symphony Orchestra & Günther Theuring - Eisler: Deutsche Sinfonie, Op. 50: No. 2, An die Kämpfer in den Konzentrationslagern
03. Wiener Jenesse Chor, ORF Vienna Radio Symphony Orchestra & Günther Theuring - Eisler: Deutsche Sinfonie, Op. 50: No. 3, Etüde für Orchester
04. Wiener Jenesse Chor, ORF Vienna Radio Symphony Orchestra & Günther Theuring - Eisler: Deutsche Sinfonie, Op. 50: No. 4, Erinnerung
05. Wiener Jenesse Chor, ORF Vienna Radio Symphony Orchestra & Günther Theuring - Eisler: Deutsche Sinfonie, Op. 50: No. 5, In Sonnenburg
06. Wiener Jenesse Chor, ORF Vienna Radio Symphony Orchestra & Günther Theuring - Eisler: Deutsche Sinfonie, Op. 50: No. 6, Intermezzo für Orchester
07. Wiener Jenesse Chor, ORF Vienna Radio Symphony Orchestra & Günther Theuring - Eisler: Deutsche Sinfonie, Op. 50: No. 7, Begräbnis des Hetzers im Zinksarg
08. Wiener Jenesse Chor, ORF Vienna Radio Symphony Orchestra & Günther Theuring - Eisler: Deutsche Sinfonie, Op. 50: No. 8a, Bauernkantate. Missernte
09. Wiener Jenesse Chor, ORF Vienna Radio Symphony Orchestra & Günther Theuring - Eisler: Deutsche Sinfonie, Op. 50: No. 8b, Bauernkantate. Sicherheit
10. Wiener Jenesse Chor, ORF Vienna Radio Symphony Orchestra & Günther Theuring - Eisler: Deutsche Sinfonie, Op. 50: No. 8c, Bauernkantate. Flüstergespräche
11. Wiener Jenesse Chor, ORF Vienna Radio Symphony Orchestra & Günther Theuring - Eisler: Deutsche Sinfonie, Op. 50: No. 8d, Bauernkantate. Bauernliedchen
12. Wiener Jenesse Chor, ORF Vienna Radio Symphony Orchestra & Günther Theuring - Eisler: Deutsche Sinfonie, Op. 50: No. 9, Arbeiterkantate
13. Wiener Jenesse Chor, ORF Vienna Radio Symphony Orchestra & Günther Theuring - Eisler: Deutsche Sinfonie, Op. 50: No. 10, Allegro für Orchester
14. Wiener Jenesse Chor, ORF Vienna Radio Symphony Orchestra & Günther Theuring - Eisler: Deutsche Sinfonie, Op. 50: No. 11, Epilog

foobar2000 1.6.2 / Dynamic Range Meter 1.1.1
log date: 2021-02-03 16:02:18

––––––––––––––––––––––––––––––––––––––––
Analyzed: Wiener Jenesse Chor, ORF Vienna Radio Symphony Orchestra & Günther Theuring / Eisler: Deutsche Sinfonie, Op. 50
––––––––––––––––––––––––––––––––––––––––

DR Peak RMS Duration Track
––––––––––––––––––––––––––––––––––––––––
DR12 -0.71 dB -21.08 dB 7:25 01-Eisler: Deutsche Sinfonie, Op. 50: No. 1, Präludium
DR13 -1.73 dB -22.04 dB 3:31 02-Eisler: Deutsche Sinfonie, Op. 50: No. 2, An die Kämpfer in den Konzentrationslagern
DR15 -2.05 dB -21.46 dB 3:02 03-Eisler: Deutsche Sinfonie, Op. 50: No. 3, Etüde für Orchester
DR15 -0.26 dB -21.41 dB 3:34 04-Eisler: Deutsche Sinfonie, Op. 50: No. 4, Erinnerung
DR15 -0.37 dB -20.84 dB 2:40 05-Eisler: Deutsche Sinfonie, Op. 50: No. 5, In Sonnenburg
DR15 -5.20 dB -28.16 dB 5:30 06-Eisler: Deutsche Sinfonie, Op. 50: No. 6, Intermezzo für Orchester
DR13 -0.46 dB -19.55 dB 5:40 07-Eisler: Deutsche Sinfonie, Op. 50: No. 7, Begräbnis des Hetzers im Zinksarg
DR13 -4.10 dB -23.15 dB 1:18 08-Eisler: Deutsche Sinfonie, Op. 50: No. 8a, Bauernkantate. Missernte
DR13 -2.20 dB -21.33 dB 1:58 09-Eisler: Deutsche Sinfonie, Op. 50: No. 8b, Bauernkantate. Sicherheit
DR15 -11.20 dB -34.85 dB 2:58 10-Eisler: Deutsche Sinfonie, Op. 50: No. 8c, Bauernkantate. Flüstergespräche
DR15 -5.47 dB -26.62 dB 1:41 11-Eisler: Deutsche Sinfonie, Op. 50: No. 8d, Bauernkantate. Bauernliedchen
DR14 -0.80 dB -21.07 dB 15:53 12-Eisler: Deutsche Sinfonie, Op. 50: No. 9, Arbeiterkantate
DR16 -0.21 dB -22.21 dB 10:26 13-Eisler: Deutsche Sinfonie, Op. 50: No. 10, Allegro für Orchester
DR12 -0.55 dB -19.61 dB 0:59 14-Eisler: Deutsche Sinfonie, Op. 50: No. 11, Epilog
––––––––––––––––––––––––––––––––––––––––

Number of tracks: 14
Official DR value: DR14

Samplerate: 48000 Hz
Channels: 2
Bits per sample: 24
Bitrate: 1290 kbps
Codec: FLAC
================================================================================



Thanks to the Original customer.