Wilhelm Backhaus - Beethoven The Piano Sonatas (2020) [Official Digital Download 24/96]

Posted By: pyatak
Wilhelm Backhaus - Beethoven The Piano Sonatas (2020) [Official Digital Download 24/96]

Wilhelm Backhaus - Beethoven The Piano Sonatas (2020) [Official Digital Download 24/96]
FLAC (tracks) 24-bit/96 kHz | Front Cover | Time - 08:16:54 minutes | 9,81 GB
Classical | Label: Decca Music Group Ltd., Official Digital Download

Backhaus was one of the great exponents of the Classical and Romantic repertory and his performances had an integrity that eschewed any unnecessary display and flamboyance; his concern was to give the most direct interpretation of what the composer wishes and the structure and architecture of his chosen repertory was paramount. Backhaus recorded extensively for Decca throughout the 1950s and 1960s and recorded works by Beethoven, Brahms, Haydn, Mendelssohn, Mozart, and Schumann. His complete cycle of Beethoven Sonatas occupied him throughout the 1950s and 1960s and is regarded by many as his greatest achievement, and the cycle is justly recognized as one of the great recorded cycles. It has not been available on CD for some years now and is reissued in response to repeated requests to make it available again.

TRACKLIST

01. Wilhelm Backhaus - 1. Allegro (Stereo Version)
02. Wilhelm Backhaus - 2. Adagio (Stereo Version)
03. Wilhelm Backhaus - 3. Menuetto. Allegretto (Stereo Version)
04. Wilhelm Backhaus - 4. Prestissimo (Stereo Version)
05. Wilhelm Backhaus - 1. Allegro vivace (Stereo Version)
06. Wilhelm Backhaus - 2. Largo appassionato (Stereo Version)
07. Wilhelm Backhaus - 3. Scherzo. Allegretto (Stereo Version)
08. Wilhelm Backhaus - 4. Rondo. Grazioso (Stereo Version)
09. Wilhelm Backhaus - 1. Allegro con brio (Stereo Version)
10. Wilhelm Backhaus - 2. Adagio (Stereo Version)
11. Wilhelm Backhaus - 3. Scherzo. Allegro (Stereo Version)
12. Wilhelm Backhaus - 4. Allegro assai (Stereo Version)
13. Wilhelm Backhaus - 1. Allegro molto e con brio (Stereo Version)
14. Wilhelm Backhaus - 2. Largo, con gran espressione (Stereo Version)
15. Wilhelm Backhaus - 3. Allegro (Stereo Version)
16. Wilhelm Backhaus - 4. Rondo. Poco allegretto e grazioso (Stereo Version)
17. Wilhelm Backhaus - 1. Allegro molto e con brio (Stereo Version)
18. Wilhelm Backhaus - 2. Adagio molto (Stereo Version)
19. Wilhelm Backhaus - 3. Finale. Prestissimo (Stereo Version)
20. Wilhelm Backhaus - 1. Allegro (Stereo Version)
21. Wilhelm Backhaus - 2. Allegretto (Stereo Version)
22. Wilhelm Backhaus - 3. Presto (Stereo Version)
23. Wilhelm Backhaus - 1. Presto (Stereo Version)
24. Wilhelm Backhaus - 2. Largo e mesto (Stereo Version)
25. Wilhelm Backhaus - 3. Menuetto. Allegro (Stereo Version)
26. Wilhelm Backhaus - 4. Rondo. Allegro (Stereo Version)
27. Wilhelm Backhaus - 1. Grave - Allegro di molto e con brio (Stereo Version)
28. Wilhelm Backhaus - 2. Adagio cantabile (Stereo Version)
29. Wilhelm Backhaus - 3. Rondo. Allegro (Stereo Version)
30. Wilhelm Backhaus - 1. Allegro (Stereo Version)
31. Wilhelm Backhaus - 2. Allegretto (Stereo Version)
32. Wilhelm Backhaus - 3. Rondo. Allegro comodo (Stereo Version)
33. Wilhelm Backhaus - 1. Allegro (Stereo Version)
34. Wilhelm Backhaus - 2. Andante (Stereo Version)
35. Wilhelm Backhaus - 3. Scherzo. Allegro assai (Stereo Version)
36. Wilhelm Backhaus - 1. Allegro con brio (Stereo Version)
37. Wilhelm Backhaus - 2. Adagio con molto espressione (Stereo Version)
38. Wilhelm Backhaus - 3. Menuetto (Stereo Version)
39. Wilhelm Backhaus - 4. Rondo. Allegretto (Stereo Version)
40. Wilhelm Backhaus - 1. Andante con variazioni (Stereo Version)
41. Wilhelm Backhaus - 2. Scherzo. Allegro molto (Stereo Version)
42. Wilhelm Backhaus - 3. Marcia funebre sulla morte d'un Eroe (Stereo Version)
43. Wilhelm Backhaus - 4. Allegro (Stereo Version)
44. Wilhelm Backhaus - 1. Andante - Allegro - Tempo I (Stereo Version)
45. Wilhelm Backhaus - 2. Allegro molto e vivace (Stereo Version)
46. Wilhelm Backhaus - 3. Adagio con espressione (Stereo Version)
47. Wilhelm Backhaus - 4. Allegro vivace - Tempo I - Presto (Stereo Version)
48. Wilhelm Backhaus - 1. Adagio sostenuto (Stereo Version)
49. Wilhelm Backhaus - 2. Allegretto (Stereo Version)
50. Wilhelm Backhaus - 3. Presto (Stereo Version)
51. Wilhelm Backhaus - 1. Allegro (Stereo Version)
52. Wilhelm Backhaus - 2. Andante (Stereo Version)
53. Wilhelm Backhaus - 3. Scherzo. Allegro assai (Stereo Version)
54. Wilhelm Backhaus - 4. Rondo. Allegro ma non troppo (Stereo Version)
55. Wilhelm Backhaus - 1. Allegro vivace (Stereo Version)
56. Wilhelm Backhaus - 2. Adagio grazioso (Stereo Version)
57. Wilhelm Backhaus - 3. Rondo. Allegretto (Stereo Version)
58. Wilhelm Backhaus - 1. Largo - Allegro (Stereo Version)
59. Wilhelm Backhaus - 2. Adagio (Stereo Version)
60. Wilhelm Backhaus - 3. Allegretto (Stereo Version)
61. Wilhelm Backhaus - 1. Allegro (Stereo Version)
62. Wilhelm Backhaus - 2. Scherzo. Allegretto vivace (Stereo Version)
63. Wilhelm Backhaus - 3. Menuetto. Moderato e grazioso (Stereo Version)
64. Wilhelm Backhaus - 4. Presto con fuoco (Stereo Version)
65. Wilhelm Backhaus - 1. Andante (Stereo Version)
66. Wilhelm Backhaus - 2. Rondo. Allegro (Stereo Version)
67. Wilhelm Backhaus - 1. Allegro ma non troppo (Stereo Version)
68. Wilhelm Backhaus - 2. Tempo di Menuetto (Stereo Version)
69. Wilhelm Backhaus - 1. Allegro con brio (Stereo Version)
70. Wilhelm Backhaus - 2. Introduzione. Adagio molto (Stereo Version)
71. Wilhelm Backhaus - 3. Rondo. Allegretto moderato - Prestissimo (Stereo Version)
72. Wilhelm Backhaus - 1. In tempo d'un menuetto (Stereo Version)
73. Wilhelm Backhaus - 2. Allegretto (Stereo Version)
74. Wilhelm Backhaus - 1. Allegro assai (Stereo Version)
75. Wilhelm Backhaus - 2. Andante con moto (Stereo Version)
76. Wilhelm Backhaus - 3. Allegro ma non troppo (Stereo Version)
77. Wilhelm Backhaus - 1. Adagio cantabile - Allegro ma non troppo (Stereo Version)
78. Wilhelm Backhaus - 2. Allegro vivace (Stereo Version)
79. Wilhelm Backhaus - 1. Presto alla tedesca (Stereo Version)
80. Wilhelm Backhaus - 2. Andante (Stereo Version)
81. Wilhelm Backhaus - 3. Vivace (Stereo Version)
82. Wilhelm Backhaus - 1. Das Lebewohl. Adagio - Allegro (Stereo Version)
83. Wilhelm Backhaus - 2. Die Abwesenheit. Andante espressivo (Stereo Version)
84. Wilhelm Backhaus - 3. Das Wiedersehn. Vivacissimamente (Stereo Version)
85. Wilhelm Backhaus - 1. Mit Lebhaftigkeit und durchaus mit Empfindung und Ausdruck (Stereo Version)
86. Wilhelm Backhaus - 2. Nicht zu geschwind und sehr singbar vorgetragen (Stereo Version)
87. Wilhelm Backhaus - 1. Etwas lebhaft und mit der innigsten Empfindung. Allegretto ma non troppo (Stereo Version)
88. Wilhelm Backhaus - 2. Lebhaft, marschmäßig. Vivace alla marcia (Stereo Version)
89. Wilhelm Backhaus - 3. Langsam und sehnsuchtsvoll. Adagio & 4. Geschwind, doch nicht zu sehr und mit Entschlossenheit. Allegro (Stereo Version)
90. Wilhelm Backhaus - 1. Vivace, ma non troppo - Adagio espressivo - Tempo I (Stereo Version)
91. Wilhelm Backhaus - 2. Prestissimo (Stereo Version)
92. Wilhelm Backhaus - 3. Gesangvoll, mit innigster Empfindung. Andante molto cantabile ed espressivo (Stereo Version)
93. Wilhelm Backhaus - 1. Moderato cantabile molto espressivo (Stereo Version)
94. Wilhelm Backhaus - 2. Allegro molto (Stereo Version)
95. Wilhelm Backhaus - 3a. Adagio ma non troppo (Stereo Version)
96. Wilhelm Backhaus - 3b. Fuga. Allegro ma non troppo (Stereo Version)
97. Wilhelm Backhaus - 1. Maestoso - Allegro con brio ed appassionato (Stereo Version)
98. Wilhelm Backhaus - 2. Arietta. Adagio molto semplice e cantabile (Stereo Version)

foobar2000 1.3.16 / Dynamic Range Meter 1.1.1
log date: 2020-08-01 18:47:33

––––––––––––––––––––––––––––––––––––––––
Analyzed: Wilhelm Backhaus / Beethoven: The Piano Sonatas
––––––––––––––––––––––––––––––––––––––––

DR Peak RMS Duration Track
––––––––––––––––––––––––––––––––––––––––
DR14 -1.68 dB -19.38 dB 3:02 01-1. Allegro (Stereo Version)
DR16 -5.94 dB -25.38 dB 3:58 02-2. Adagio (Stereo Version)
DR11 -3.49 dB -19.74 dB 2:25 03-3. Menuetto. Allegretto (Stereo Version)
DR12 -2.42 dB -17.99 dB 3:51 04-4. Prestissimo (Stereo Version)
DR13 -1.11 dB -18.08 dB 4:55 05-1. Allegro vivace (Stereo Version)
DR15 -1.80 dB -22.68 dB 5:01 06-2. Largo appassionato (Stereo Version)
DR11 -3.20 dB -19.64 dB 2:48 07-3. Scherzo. Allegretto (Stereo Version)
DR12 -3.39 dB -20.07 dB 6:22 08-4. Rondo. Grazioso (Stereo Version)
DR12 -2.39 dB -18.01 dB 7:23 09-1. Allegro con brio (Stereo Version)
DR16 -5.12 dB -26.23 dB 5:58 10-2. Adagio (Stereo Version)
DR12 -0.39 dB -17.37 dB 3:05 11-3. Scherzo. Allegro (Stereo Version)
DR13 -0.20 dB -17.85 dB 5:31 12-4. Allegro assai (Stereo Version)
DR13 -2.66 dB -19.17 dB 6:20 13-1. Allegro molto e con brio (Stereo Version)
DR15 -2.38 dB -25.08 dB 6:14 14-2. Largo, con gran espressione (Stereo Version)
DR12 -4.22 dB -22.15 dB 3:49 15-3. Allegro (Stereo Version)
DR13 -2.84 dB -20.81 dB 6:34 16-4. Rondo. Poco allegretto e grazioso (Stereo Version)
DR13 -3.25 dB -20.01 dB 4:06 17-1. Allegro molto e con brio (Stereo Version)
DR14 -5.20 dB -24.20 dB 5:52 18-2. Adagio molto (Stereo Version)
DR12 -3.00 dB -19.36 dB 3:21 19-3. Finale. Prestissimo (Stereo Version)
DR12 -1.81 dB -18.25 dB 4:25 20-1. Allegro (Stereo Version)
DR14 -0.99 dB -19.22 dB 3:27 21-2. Allegretto (Stereo Version)
DR11 -0.92 dB -15.79 dB 2:17 22-3. Presto (Stereo Version)
DR13 -1.01 dB -16.93 dB 4:52 23-1. Presto (Stereo Version)
DR15 -1.59 dB -21.56 dB 6:36 24-2. Largo e mesto (Stereo Version)
DR11 -3.68 dB -18.65 dB 2:35 25-3. Menuetto. Allegro (Stereo Version)
DR12 -2.76 dB -19.09 dB 4:05 26-4. Rondo. Allegro (Stereo Version)
DR14 -0.31 dB -18.57 dB 6:13 27-1. Grave - Allegro di molto e con brio (Stereo Version)
DR16 -2.73 dB -25.97 dB 4:47 28-2. Adagio cantabile (Stereo Version)
DR13 -1.78 dB -19.33 dB 4:30 29-3. Rondo. Allegro (Stereo Version)
DR14 -1.13 dB -19.58 dB 4:29 30-1. Allegro (Stereo Version)
DR14 -0.61 dB -19.99 dB 3:13 31-2. Allegretto (Stereo Version)
DR12 -0.73 dB -18.38 dB 3:35 32-3. Rondo. Allegro comodo (Stereo Version)
DR12 -1.86 dB -18.19 dB 4:55 33-1. Allegro (Stereo Version)
DR15 -0.81 dB -21.69 dB 5:32 34-2. Andante (Stereo Version)
DR13 -1.23 dB -17.79 dB 3:18 35-3. Scherzo. Allegro assai (Stereo Version)
DR13 -0.99 dB -17.49 dB 5:41 36-1. Allegro con brio (Stereo Version)
DR16 -5.04 dB -25.14 dB 7:14 37-2. Adagio con molto espressione (Stereo Version)
DR12 -1.69 dB -18.04 dB 3:10 38-3. Menuetto (Stereo Version)
DR12 -0.44 dB -17.57 dB 5:45 39-4. Rondo. Allegretto (Stereo Version)
DR14 -3.00 dB -22.94 dB 7:07 40-1. Andante con variazioni (Stereo Version)
DR12 -0.95 dB -17.64 dB 2:43 41-2. Scherzo. Allegro molto (Stereo Version)
DR14 -0.20 dB -20.19 dB 5:16 42-3. Marcia funebre sulla morte d'un Eroe (Stereo Version)
DR12 -0.21 dB -18.54 dB 2:49 43-4. Allegro (Stereo Version)
DR13 -0.88 dB -20.19 dB 4:50 44-1. Andante - Allegro - Tempo I (Stereo Version)
DR11 -1.22 dB -16.70 dB 2:09 45-2. Allegro molto e vivace (Stereo Version)
DR14 -3.72 dB -22.27 dB 2:12 46-3. Adagio con espressione (Stereo Version)
DR12 -0.25 dB -17.66 dB 5:26 47-4. Allegro vivace - Tempo I - Presto (Stereo Version)
DR13 -15.17 dB -33.43 dB 5:41 48-1. Adagio sostenuto (Stereo Version)
DR12 -6.17 dB -22.43 dB 2:20 49-2. Allegretto (Stereo Version)
DR12 -1.61 dB -17.77 dB 7:21 50-3. Presto (Stereo Version)
DR13 -2.33 dB -20.46 dB 6:46 51-1. Allegro (Stereo Version)
DR15 -4.56 dB -23.76 dB 6:28 52-2. Andante (Stereo Version)
DR12 -1.08 dB -18.71 dB 1:55 53-3. Scherzo. Allegro assai (Stereo Version)
DR12 -0.54 dB -16.93 dB 4:16 54-4. Rondo. Allegro ma non troppo (Stereo Version)
DR12 -1.81 dB -18.66 dB 4:58 55-1. Allegro vivace (Stereo Version)
DR14 -3.54 dB -22.10 dB 8:24 56-2. Adagio grazioso (Stereo Version)
DR12 -1.29 dB -18.34 dB 6:18 57-3. Rondo. Allegretto (Stereo Version)
DR14 -2.29 dB -21.97 dB 8:28 58-1. Largo - Allegro (Stereo Version)
DR15 -7.01 dB -26.90 dB 6:18 59-2. Adagio (Stereo Version)
DR13 -2.72 dB -19.39 dB 6:28 60-3. Allegretto (Stereo Version)
DR13 -2.80 dB -21.52 dB 6:16 61-1. Allegro (Stereo Version)
DR14 -2.00 dB -21.52 dB 3:47 62-2. Scherzo. Allegretto vivace (Stereo Version)
DR15 -3.79 dB -25.20 dB 4:07 63-3. Menuetto. Moderato e grazioso (Stereo Version)
DR12 -0.20 dB -18.09 dB 4:47 64-4. Presto con fuoco (Stereo Version)
DR14 -5.93 dB -24.04 dB 3:29 65-1. Andante (Stereo Version)
DR14 -2.63 dB -21.52 dB 3:38 66-2. Rondo. Allegro (Stereo Version)
DR12 -6.38 dB -22.21 dB 2:58 67-1. Allegro ma non troppo (Stereo Version)
DR12 -7.08 dB -25.64 dB 3:19 68-2. Tempo di Menuetto (Stereo Version)
DR12 -4.43 dB -21.27 dB 8:50 69-1. Allegro con brio (Stereo Version)
DR14 -12.31 dB -32.26 dB 3:13 70-2. Introduzione. Adagio molto (Stereo Version)
DR12 -4.93 dB -21.49 dB 9:44 71-3. Rondo. Allegretto moderato - Prestissimo (Stereo Version)
DR12 -2.61 dB -19.92 dB 5:16 72-1. In tempo d'un menuetto (Stereo Version)
DR11 -2.39 dB -18.18 dB 5:18 73-2. Allegretto (Stereo Version)
DR12 -3.27 dB -20.71 dB 9:33 74-1. Allegro assai (Stereo Version)
DR14 -3.86 dB -24.72 dB 6:01 75-2. Andante con moto (Stereo Version)
DR12 -2.59 dB -18.73 dB 5:27 76-3. Allegro ma non troppo (Stereo Version)
DR13 -2.35 dB -19.68 dB 6:47 77-1. Adagio cantabile - Allegro ma non troppo (Stereo Version)
DR13 -2.67 dB -19.97 dB 3:10 78-2. Allegro vivace (Stereo Version)
DR12 -5.67 dB -21.77 dB 4:18 79-1. Presto alla tedesca (Stereo Version)
DR14 -13.29 dB -31.36 dB 2:56 80-2. Andante (Stereo Version)
DR11 -7.40 dB -22.80 dB 1:53 81-3. Vivace (Stereo Version)
DR12 -1.82 dB -19.34 dB 6:57 82-1. Das Lebewohl. Adagio - Allegro (Stereo Version)
DR15 -6.13 dB -26.41 dB 3:07 83-2. Die Abwesenheit. Andante espressivo (Stereo Version)
DR11 -2.52 dB -17.98 dB 6:09 84-3. Das Wiedersehn. Vivacissimamente (Stereo Version)
DR14 -4.52 dB -23.21 dB 5:01 85-1. Mit Lebhaftigkeit und durchaus mit Empfindung und Ausdruck (Stereo Version)
DR14 -5.70 dB -23.89 dB 7:40 86-2. Nicht zu geschwind und sehr singbar vorgetragen (Stereo Version)
DR13 -5.93 dB -23.80 dB 3:14 87-1. Etwas lebhaft und mit der innigsten Empfindung. Allegretto ma non troppo (Stereo Version)
DR14 -0.84 dB -19.14 dB 6:07 88-2. Lebhaft, marschmäßig. Vivace alla marcia (Stereo Version)
DR14 -1.33 dB -20.88 dB 9:27 89-3. Langsam und sehnsuchtsvoll. Adagio & 4. Geschwind, doch nicht zu sehr und mit Entschlossenheit. Allegro (Stereo Version)
DR13 -5.01 dB -22.25 dB 2:59 90-1. Vivace, ma non troppo - Adagio espressivo - Tempo I (Stereo Version)
DR12 -2.72 dB -19.47 dB 2:18 91-2. Prestissimo (Stereo Version)
DR13 -4.33 dB -25.07 dB 12:30 92-3. Gesangvoll, mit innigster Empfindung. Andante molto cantabile ed espressivo (Stereo Version)
DR12 -4.51 dB -21.99 dB 5:22 93-1. Moderato cantabile molto espressivo (Stereo Version)
DR13 -3.12 dB -19.16 dB 2:05 94-2. Allegro molto (Stereo Version)
DR14 -8.58 dB -27.71 dB 2:52 95-3a. Adagio ma non troppo (Stereo Version)
DR12 -2.90 dB -20.29 dB 6:12 96-3b. Fuga. Allegro ma non troppo (Stereo Version)
DR12 -3.17 dB -19.80 dB 8:17 97-1. Maestoso - Allegro con brio ed appassionato (Stereo Version)
DR14 -3.20 dB -23.50 dB 13:05 98-2. Arietta. Adagio molto semplice e cantabile (Stereo Version)
––––––––––––––––––––––––––––––––––––––––

Number of tracks: 98
Official DR value: DR13

Samplerate: 96000 Hz
Channels: 2
Bits per sample: 24
Bitrate: 2990 kbps
Codec: FLAC
================================================================================



Thanks to the Original customer.