Llŷr Williams - Llŷr Williams: Schubert, Vol. 6 (2020) [Official Digital Download 24/96]

Posted By: SERTiL
Llŷr Williams - Llŷr Williams: Schubert, Vol. 6 (2020) [Official Digital Download 24/96]

Llŷr Williams - Llŷr Williams: Schubert, Vol. 6 (2020)
FLAC (tracks) 24-bit/96 kHz | Time - 69:06 minutes | 1.10 GB
Studio Master, Official Digital Download | Artwork: Front Cover

This album contains the earliest three of Schubert's piano sonatas Llŷr Williams included in his Cardiff series (there are eight earlier works in the genre—in varying states of completion). All three remained unpublished until after the composer's death, and together they mark Schubert's journey into composing maturity.

Tracklist:
01. Sonata in B Major, Op. post. 147, D. 575: I. Allegro, ma non troppo (8:05)
02. Sonata in B Major, Op. post. 147, D. 575: II. Andante (5:49)
03. Sonata in B Major, Op. post. 147, D. 575: III. Scherzo-Allegretto (5:29)
04. Sonata in B Major, Op. post. 147, D. 575: IV. Allegro giusto (5:03)
05. Sonata in A Major, Op. post. 120, D. 664: I. Allegro moderato (7:47)
06. Sonata in A Major, Op. post. 120, D. 664: II. Andante (5:19)
07. Sonata in A Major, Op. post. 120, D. 664: III. Allegro (7:15)
08. Sonata in A Minor, Op. post. 142, D. 784: I. Allegro giusto (13:51)
09. Sonata in A Minor, Op. post. 142, D. 784: II. Andante (4:45)
10. Sonata in A Minor, Op. post. 142, D. 784: III. Allegro vivace (5:48)

foobar2000 1.3.7 / Dynamic Range Meter 1.1.1
log date: 2020-03-24 21:59:42

––––––––––––––––––––––––––––––––––––––––
Analyzed: Llŷr Williams / Llŷr Williams: Schubert, Vol. 6
––––––––––––––––––––––––––––––––––––––––

DR Peak RMS Duration Track
––––––––––––––––––––––––––––––––––––––––
DR17 -0.23 dB -21.85 dB 8:05 01-Sonata in B Major, Op. post. 147, D. 575: I. Allegro, ma non troppo
DR15 -0.53 dB -22.31 dB 5:49 02-Sonata in B Major, Op. post. 147, D. 575: II. Andante
DR14 -3.99 dB -22.09 dB 5:29 03-Sonata in B Major, Op. post. 147, D. 575: III. Scherzo-Allegretto
DR15 -0.46 dB -20.90 dB 5:03 04-Sonata in B Major, Op. post. 147, D. 575: IV. Allegro giusto
DR14 -2.00 dB -21.75 dB 7:47 05-Sonata in A Major, Op. post. 120, D. 664: I. Allegro moderato
DR16 -0.23 dB -23.53 dB 5:19 06-Sonata in A Major, Op. post. 120, D. 664: II. Andante
DR15 -0.23 dB -19.61 dB 7:15 07-Sonata in A Major, Op. post. 120, D. 664: III. Allegro
DR14 -0.23 dB -20.78 dB 13:51 08-Sonata in A Minor, Op. post. 142, D. 784: I. Allegro giusto
DR15 -0.23 dB -23.72 dB 4:45 09-Sonata in A Minor, Op. post. 142, D. 784: II. Andante
DR15 -0.23 dB -19.78 dB 5:48 10-Sonata in A Minor, Op. post. 142, D. 784: III. Allegro vivace
––––––––––––––––––––––––––––––––––––––––

Number of tracks: 10
Official DR value: DR15

Samplerate: 96000 Hz
Channels: 2
Bits per sample: 24
Bitrate: 2277 kbps
Codec: FLAC
================================================================================


Thanks to the Original customer.