Lionel Cottet & Jorge Viladoms - From Latin America to Paris - Works for Cello and Piano (2017) [Official Digital Download]

Posted By: SERTiL
Lionel Cottet & Jorge Viladoms - From Latin America to Paris - Works for Cello and Piano (2017) [Official Digital Download]

Lionel Cottet & Jorge Viladoms - From Latin America to Paris - Works for Cello and Piano (2017)
FLAC (tracks) 24-bit/48 kHz | Time - 73:27 minutes | 673 MB
Studio Master, Official Digital Download | Artwork: Digital booklet

One is Swiss, the other Mexican. Beyond the barriers of language and oceans, they invite us to transcend the frontiers in inviting Latin American jewels to communicate freely with Parisian creations – just as musicians coming from beyond the Atlantic Ocean a century ago were welcomed with open arms by “the most beautiful city in the world”.

The program opens with one of the de ning compositions of cello and piano repertoires: The Elegy by Gabriel Fauré. Em- bracing the whole expressive spectrum of the two instruments, the piece is created in Paris in 1880. After a rst private audition in the salons of Saint-Saëns, the composition is presented to the public in December 1883 at the Société Nationale de Musique with Fauré himself at the piano. ….

TRACKLIST

Manuel María Ponce (1882 - 1948)

1 Sonata for Violoncello and Piano: I. Allegro selvaggio 08:37
2 Sonata for Violoncello and Piano: Allegro alla maniera d'uno studio 05:58
3 Sonata for Violoncello and Piano: III. Arietta. Andantino affetuoso 04:32
4 Sonata for Violoncello and Piano: IV. Allegro burlesco 06:16

Gabriel Fauré (1845 - 1924)

5 Elegie, Op. 24 07:09

Alberto Ginastera (1916 - 1983)

6 Triste 03:08

Claude Debussy (1862 - 1918)

7 Sonata for Violoncello and Piano, L. 135: I. Prologue. Lent 04:51
8 Sonata for Violoncello and Piano, L. 135: II. Sérénade. Modérément animé 03:29
9 Sonata for Violoncello and Piano, L. 135: III. Finale. Animé 03:39

Heitor Villa-Lobos (1887 - 1959)

10 Chant du cygne noir, W 122 03:11

Camille Saint-Saëns (1835 - 1921)

11 Le carnaval des animaux, R. 125: XIII. Le cygne 03:08

Maurice Ravel (1875 - 1937)

12 Pièce en forme de Habanera, M. 51 03:18

Astor Piazzolla (1921 - 1992)

13 Oblivion 03:34

Manuel María Ponce

14 2 Canciones Mexicanas: II. Estrellita (Arr. for Cello and Piano by Jascha Heifetz) 03:23

Jules Massenet (1842 - 1912)

15 Thais: Méditation 05:48

Manuel María Ponce

16 2 Canciones Mexicanas: II. Estrellita (Arr. for Cello and Piano by Gaspard Glaus) 03:48

PERSONNEL
Jorge Viladoms, Klavier
Lionel Cottet, Cello

foobar2000 1.3.7 / Dynamic Range Meter 1.1.1
log date: 2017-08-29 18:57:32

––––––––––––––––––––––––––––––––––––––––
Analyzed: Lionel Cottet & Jorge Viladoms / From Latin America to Paris - Works for Cello and Piano
––––––––––––––––––––––––––––––––––––––––

DR Peak RMS Duration Track
––––––––––––––––––––––––––––––––––––––––
DR13 -1.93 dB -19.47 dB 8:34 01-Sonata for Violoncello and Piano: I. Allegro selvaggio
DR13 -2.26 dB -20.90 dB 5:56 02-Sonata for Violoncello and Piano: Allegro alla maniera d'uno studio
DR12 -7.57 dB -27.06 dB 4:31 03-Sonata for Violoncello and Piano: III. Arietta. Andantino affetuoso
DR13 -1.08 dB -18.44 dB 6:16 04-Sonata for Violoncello and Piano: IV. Allegro burlesco
DR13 -2.34 dB -22.62 dB 7:06 05-Elegie, Op. 24
DR16 -2.05 dB -25.55 dB 3:06 06-Triste
DR13 -1.83 dB -21.98 dB 4:50 07-Sonata for Violoncello and Piano, L. 135: I. Prologue. Lent
DR17 -1.89 dB -25.24 dB 3:32 08-Sonata for Violoncello and Piano, L. 135: II. Sérénade. Modérément animé
DR14 -1.89 dB -20.50 dB 3:40 09-Sonata for Violoncello and Piano, L. 135: III. Finale. Animé
DR11 -2.46 dB -19.09 dB 3:09 10-Chant du cygne noir, W 122
DR11 -7.57 dB -23.60 dB 3:06 11-Le Carnaval Des Animaux, R. 125: XIII. Le Cygne
DR13 -3.13 dB -23.50 dB 3:17 12-Pièce en forme de Habanera, M. 51
DR12 -2.21 dB -19.77 dB 3:32 13-Oblivion
DR13 -0.50 dB -19.16 dB 3:23 14-2 Canciones Mexicanas: II. Estrellita (Arr. for Cello and Piano by Jascha Heifetz)
DR13 -1.48 dB -21.27 dB 5:46 15-Thais: Méditation
DR12 -3.02 dB -20.05 dB 3:49 16-2 Canciones Mexicanas: II. Estrellita (Arr. for Cello and Piano by Gaspard Glaus)
––––––––––––––––––––––––––––––––––––––––

Number of tracks: 16
Official DR value: DR13

Samplerate: 48000 Hz
Channels: 2
Bits per sample: 24
Bitrate: 1313 kbps
Codec: FLAC
================================================================================


Thanks to the Original customer.