Tags
Language
Tags

Jackson Browne - World In Motion (1989/2013) [Official Digital Download 24/192]

Posted By: SERTiL
Jackson Browne - World In Motion (1989/2013) [Official Digital Download 24/192]

Jackson Browne - World In Motion (1989/2013)
FLAC (tracks) 24-bit/192 kHz | Time - 47:11 minutes | 1.76 GB
Studio Master, Official Digital Download | Artwork: Front Cover

Throughout the ‘80s, Jackson Browne’s political conscience began dominating his songwriting. With 1989’s World in Motion, it hit its peak. The title track condemns the ever-widening gap between rich and poor and the way that advertising creates want and need. Browne matches his lyrics with a nightclub blues lick and arrangement heavy on the ‘80s synths. “How Long” is another swampy blues; it asks how society will take care of humanity while defense spending skyrockets beyond anyone’s dreams. “When the Stone Begins to Turn” adds reggae to a song for freedom, while Little Steven’s “I Am a Patriot” stands as the album’s finest anthem. Yet Browne hasn’t lost his knack for compassionate love songs. “Enough of the Night” offers hope to those seduced by the barroom lights, while “Chasing You into the Light” proves his heart still yearns and reaches for what he can barely grasp.

'Browne's call to action on World in Motion is also the toughest kind to deny. Even more explicitly issue driven than its politically charged predecessor Lives In The Balance, World in Motion is an album of universal truths bound together by a highly personal focus. Browne's stance is also free of gratuitous pop-star rage, rooted instead in calm, unassailable reason. The beauty of a song like 'Anything Can Happen' - which contends that if love can thrive in a climate of violence and dread, so can the promise of change - is that its calm adamancy is actually heightened by its tender elegance. There are a million ways for music to say that people deserve better - better government, better life, better love. On World in Motion, Browne gets your attention by getting under your skin.' (David Fricke, Rolling Stone)

Tracklist:
1. World In Motion 04:27
2. Enough Of The Night 04:56
3. Chasing You Into The Light 04:20
4. How Long 06:14
5. Anything Can Happen 05:07
6. When The Stone Begins To Turn 04:52
7. The Word Justice 04:21
8. My Personal Revenge 04:09
9. I Am A Patriot 04:05
10. Lights And Virtues 04:43

Personnel:
Jackson Browne, guitar, vocals, keyboard
Craig Doerge, keyboard
Kevin Dukes, guitar
Scott Thurston, bass
Michael Jochum, drums
Bonnie Ryatt, vocals
Doug Haywood, vocals

Mixed by David Tickle
Producer by Jackson Browne and Scott Thurston

Digitally remastered.

foobar2000 1.3.7 / Dynamic Range Meter 1.1.1
log date: 2018-07-10 23:23:08

––––––––––––––––––––––––––––––––––––––––
Analyzed: Jackson Browne / World In Motion
––––––––––––––––––––––––––––––––––––––––

DR Peak RMS Duration Track
––––––––––––––––––––––––––––––––––––––––
DR13 -0.06 dB -15.69 dB 4:27 01-World In Motion
DR12 -0.77 dB -15.00 dB 4:56 02-Enough Of The Night
DR12 -1.42 dB -15.21 dB 4:20 03-Chasing You Into The Light
DR14 -0.83 dB -17.30 dB 6:14 04-How Long
DR13 -1.44 dB -17.31 dB 5:07 05-Anything Can Happen
DR13 -1.57 dB -16.75 dB 4:52 06-When The Stone Begins To Turn
DR12 -1.03 dB -15.48 dB 4:21 07-The Word Justice
DR12 -2.36 dB -17.09 dB 4:09 08-My Personal Revenge
DR12 -0.47 dB -15.42 dB 4:05 09-I Am A Patriot
DR12 -2.27 dB -17.43 dB 4:43 10-Lights And Virtues
––––––––––––––––––––––––––––––––––––––––

Number of tracks: 10
Official DR value: DR13

Samplerate: 192000 Hz
Channels: 2
Bits per sample: 24
Bitrate: 5063 kbps
Codec: FLAC
================================================================================


Thanks to the Original customer.