Tags
Language
Tags

Yasunori Imamura - Bach: Complete Works for Lute (2018) [Official Digital Download]

Posted By: SERTiL
Yasunori Imamura - Bach: Complete Works for Lute (2018) [Official Digital Download]

Yasunori Imamura - Bach: Complete Works for Lute (2018)
FLAC (tracks) 24-bit/44.1 kHz | Time - 116:41 minutes | 1.01 GB
Studio Master, Official Digital Download | Artwork: Digital Booklet

The considerable variety of Johann Sebastian Bach’s output for the lute stands witness to different periods of his life and career. This collection comprises Bach’s complete lute works, amply demonstrating his interest in its expressive qualities. These works include the technically demanding Partita BWV 1006a, Bach’s own transcription of his Cello Suite No. 5, three pieces from the St John Passion and the St Matthew Passion where the lute appears in an ensemble setting, and the Prelude, Fugue and Allegro, BWV 998, described by the renowned harpsichordist Wanda Landowska as ‘of incomparable beauty… unique amongst Bach’s works’.

Tracklist:

CD1
01. Lute Partita in E Major, BWV 1006a: I. Preludio
02. Lute Partita in E Major, BWV 1006a: II. Loure
03. Lute Partita in E Major, BWV 1006a: III. Gavotte en rondeau
04. Lute Partita in E Major, BWV 1006a: IV. Menuet I-V. Menuet II
05. Lute Partita in E Major, BWV 1006a: VI. Bourrée
06. Lute Partita in E Major, BWV 1006a: VII. Gigue
07. Lute Partita in C Minor, BWV 997: I. Prelude
08. Lute Partita in C Minor, BWV 997: II. Fugue
09. Lute Partita in C Minor, BWV 997: III. Sarabande
10. Lute Partita in C Minor, BWV 997: IV. Gigue-V. Double
11. Prelude in C Minor, BWV 999
12. Fugue in G Minor, BWV 1000
13. Prelude, Fugue & Allegro in E-Flat Major, BWV 998: I. Prelude
14. Prelude, Fugue & Allegro in E-Flat Major, BWV 998: II. Fugue
15. Prelude, Fugue & Allegro in E-Flat Major, BWV 998: III. Allegro

CD2
01. Lute Suite in E Minor, BWV 996: I. Prelude
02. Lute Suite in E Minor, BWV 996: II. Allemande
03. Lute Suite in E Minor, BWV 996: III. Courante
04. Lute Suite in E Minor, BWV 996: IV. Sarabande
05. Lute Suite in E Minor, BWV 996: V. Bourrée
06. Lute Suite in E Minor, BWV 996: VI. Gigue
07. Lute Suite in G Minor, BWV 995: I. Prelude
08. Lute Suite in G Minor, BWV 995: II. Allemande
09. Lute Suite in G Minor, BWV 995: III. Courante
10. Lute Suite in G Minor, BWV 995: IV. Sarabande
11. Lute Suite in G Minor, BWV 995: V. Gavotte I-VI. Gavotte II
12. Lute Suite in G Minor, BWV 995: VII. Gigue
13. St. John Passion, BWV 245: No. 19, Betrachte, meine Seel
14. St. Matthew Passion, BWV 244b (Early Version): No. 56, Ja! freilich will in uns das Fleisch und Blut
15. St. Matthew Passion, BWV 244b (Early Version): No. 57, Komm, süßes Kreuz

Personnel:
Yasunori Imamura, baroque lute

foobar2000 1.3.7 / Dynamic Range Meter 1.1.1
log date: 2018-09-17 22:36:39

––––––––––––––––––––––––––––––––––––––––
Analyzed: Dominik Wörner / Bach: Complete Works for Lute (1-3)
Yasunori Imamura / Bach: Complete Works for Lute (4-30)
––––––––––––––––––––––––––––––––––––––––

DR Peak RMS Duration Track
––––––––––––––––––––––––––––––––––––––––
DR16 -4.74 dB -24.52 dB 6:18 23-St. John Passion, BWV 245: No. 19, Betrachte, meine Seel
DR15 -6.00 dB -25.23 dB 2:50 25-St. Matthew Passion, BWV 244b (Early Version): No. 56, Ja! freilich will in uns das Fleisch und Blut
DR14 -5.33 dB -21.76 dB 2:39 27-St. Matthew Passion, BWV 244b (Early Version): No. 57, Komm, süßes Kreuz
DR12 -2.61 dB -19.19 dB 4:13 01-Lute Partita in E Major, BWV 1006a: I. Preludio
DR14 -2.85 dB -21.96 dB 3:58 02-Lute Suite in E Minor, BWV 996: I. Prelude
DR14 -3.50 dB -20.55 dB 3:29 03-Lute Suite in E Minor, BWV 996: II. Allemande
DR13 -5.83 dB -21.39 dB 4:43 04-Lute Partita in E Major, BWV 1006a: II. Loure
DR12 -3.35 dB -18.62 dB 1:51 05-Lute Partita in E Major, BWV 1006a: III. Gavotte en rondeau
DR13 -3.26 dB -18.81 dB 2:27 06-Lute Suite in E Minor, BWV 996: III. Courante
DR13 -2.38 dB -18.86 dB 3:11 07-Lute Suite in E Minor, BWV 996: IV. Sarabande
DR14 -2.65 dB -19.49 dB 7:13 08-Lute Partita in E Major, BWV 1006a: IV. Menuet I - V. Menuet II
DR15 -3.93 dB -22.25 dB 5:28 09-Lute Partita in E Major, BWV 1006a: VI. Bourrée
DR14 -4.69 dB -20.58 dB 6:09 10-Lute Suite in E Minor, BWV 996: V. Bourrée
DR13 -4.66 dB -20.84 dB 1:55 11-Lute Suite in E Minor, BWV 996: VI. Gigue
DR14 -1.91 dB -19.52 dB 5:48 12-Lute Partita in E Major, BWV 1006a: VII. Gigue
DR15 -2.86 dB -20.43 dB 3:04 13-Lute Suite in G Minor, BWV 995: I. Prelude
DR16 -0.56 dB -19.93 dB 6:32 14-Lute Partita in C Minor, BWV 997: I. Prelude
DR14 -2.58 dB -19.17 dB 3:46 15-Lute Partita in C Minor, BWV 997: II. Fugue
DR13 -3.69 dB -21.59 dB 2:50 16-Lute Suite in G Minor, BWV 995: II. Allemande
DR14 -5.04 dB -22.20 dB 3:02 17-Lute Suite in G Minor, BWV 995: III. Courante
DR15 -2.71 dB -20.95 dB 2:40 18-Lute Partita in C Minor, BWV 997: III. Sarabande
DR16 -5.19 dB -25.12 dB 4:24 19-Lute Partita in C Minor, BWV 997: IV. Gigue - V. Double
DR13 -5.44 dB -21.03 dB 1:33 20-Lute Suite in G Minor, BWV 995: IV. Sarabande
DR15 -3.39 dB -20.92 dB 3:50 21-Lute Suite in G Minor, BWV 995: V. Gavotte I - VI. Gavotte II
DR14 -3.20 dB -21.55 dB 6:11 22-Lute Suite in G Minor, BWV 995: VII. Gigue
DR13 -6.11 dB -22.20 dB 2:35 24-Prelude in C Minor, BWV 999
DR14 -4.45 dB -21.24 dB 4:43 26-Fugue in G Minor, BWV 1000
DR13 -2.85 dB -21.46 dB 2:26 28-Prelude, Fugue & Allegro in E-Flat Major, BWV 998: I. Prelude
DR10 -1.90 dB -19.12 dB 0:41 29-Prelude, Fugue & Allegro in E-Flat Major, BWV 998: II. Fugue
DR14 -3.49 dB -21.74 dB 6:29 30-Prelude, Fugue & Allegro in E-Flat Major, BWV 998: III. Allegro
––––––––––––––––––––––––––––––––––––––––

Number of tracks: 30
Official DR value: DR14

Samplerate: 44100 Hz
Channels: 2
Bits per sample: 24
Bitrate: 1220 kbps
Codec: FLAC
================================================================================


Thanks to the Original customer.