Tags
Language
Tags
January 2023
Su Mo Tu We Th Fr Sa
1 2 3 4 5 6 7
8 9 10 11 12 13 14
15 16 17 18 19 20 21
22 23 24 25 26 27 28
29 30 31 1 2 3 4

Yegor Dyachkov - Beethoven꞉ Sonatas and Variations for Cello and Piano (Vol. 1) (2022) [Official Digital Download 24/96]

Posted By: pyatak
Yegor Dyachkov - Beethoven꞉ Sonatas and Variations for Cello and Piano (Vol. 1) (2022) [Official Digital Download 24/96]

Yegor Dyachkov - Beethoven꞉ Sonatas and Variations for Cello and Piano (Vol. 1) (2022) [Official Digital Download 24/96]
FLAC (tracks) 24-bit/96 kHz | Front Cover | Time - 82:26 minutes | 1,36 GB
Classical | Studio Master, Official Digital Download

e violoncelliste Yegor Dyachkov et le pianiste Jean Saulnier présentent leur enregistrement de l’intégrale des Sonates et Variations pour violoncelle et piano de Beethoven en format numérique et physique. Le premier volume de cet ensemble sortira numériquement le 15 avril 2022, suivi du deuxième volume le 30 septembre 2022. Les sonates complètes sortiront sous forme d’un ensemble de trois CD en octobre 2022.

TRACKLIST

01. Yegor Dyachkov - Beethoven: 7 Variations on “Bei Männern, welche Liebe fühlen” in E-flat major, WoO 46
02. Yegor Dyachkov - I. Adagio sostenuto
03. Yegor Dyachkov - II. Allegro
04. Yegor Dyachkov - III. Rondo: allegro vivace
05. Yegor Dyachkov - I. Adagio sostenuto ed espressivo
06. Yegor Dyachkov - II. Allegro molto più tosto presto
07. Yegor Dyachkov - III. Rondo. Allegro
08. Yegor Dyachkov - Beethoven: 12 Variations on "Ein Mädchen oder Weibchen", Op. 66
09. Yegor Dyachkov - I. Allegro moderato
10. Yegor Dyachkov - II. Poco adagio, quasi andante
11. Yegor Dyachkov - III. Rondo. Allegro moderato

foobar2000 1.6.2 / Dynamic Range Meter 1.1.1
log date: 2022-04-14 23:07:37

––––––––––––––––––––––––––––––––––––––––
Analyzed: Yegor Dyachkov / Beethoven: Sonatas and Variations for Cello and Piano
––––––––––––––––––––––––––––––––––––––––

DR Peak RMS Duration Track
––––––––––––––––––––––––––––––––––––––––
DR15 -0.60 dB -21.14 dB 9:22 01-Beethoven: 7 Variations on “Bei Männern, welche Liebe fühlen” in E-flat major, WoO 46
DR13 -0.75 dB -20.44 dB 2:47 02-I. Adagio sostenuto
DR12 -1.30 dB -17.97 dB 14:13 03-II. Allegro
DR12 -1.30 dB -18.07 dB 6:48 04-III. Rondo: allegro vivace
DR12 -1.88 dB -23.15 dB 5:07 05-I. Adagio sostenuto ed espressivo
DR13 -0.79 dB -18.08 dB 10:15 06-II. Allegro molto più tosto presto
DR14 -1.30 dB -20.58 dB 9:18 07-III. Rondo. Allegro
DR15 -1.30 dB -22.72 dB 10:07 08-Beethoven: 12 Variations on "Ein Mädchen oder Weibchen", Op. 66
DR13 -1.35 dB -21.19 dB 8:00 09-I. Allegro moderato
DR12 -4.96 dB -26.36 dB 1:21 10-II. Poco adagio, quasi andante
DR15 -1.30 dB -21.99 dB 5:09 11-III. Rondo. Allegro moderato
––––––––––––––––––––––––––––––––––––––––

Number of tracks: 11
Official DR value: DR13

Samplerate: 96000 Hz
Channels: 2
Bits per sample: 24
Bitrate: 2342 kbps
Codec: FLAC
================================================================================



Thanks to the Original customer.