Tags
Language
Tags

Yoonie Han - Hahn: Le rossignol éperdu (2019) [Official Digital Download 24/192]

Posted By: SERTiL
Yoonie Han - Hahn: Le rossignol éperdu (2019) [Official Digital Download 24/192]

Yoonie Han - Hahn: Le rossignol éperdu (2019)
FLAC (tracks) 24-bit/192 kHz | Time - 127:51 minutes | 3.54 GB
Studio Master, Official Digital Download | Artwork: Digital Booklet

Given Reynaldo Hahn’s high profile with the patrons of Paris’s pre-war artist salons, it’s not surprising that his original works for piano include a good number of short character pieces that exude charm.

Listeners coming to this exquisite body of work may initially find Hahn’s attractive if modestly deployed keyboard writing recalling or foreshadowing other composers: The sensuous, arching phrases of early Scriabin preludes, or the sparse lyricism of late Liszt. Fauré’s subtle harmonic palette may cast a benign shadow, or the effortless melodic fluidity of Massenet; or Satie at his least brash and ironic, or the delicate balance of Mompou’s piano miniatures.

Yet Hahn goes his own way. Listen to how the disarmingly simple ascending two-note motif of Éros caché dans les bois (No. 9) weaves in and out of a chromatically-oriented linear texture that sounds denser than it is. Antiochus (No. 12) focuses on an obsessive chordal pattern that assiduously builds to a fulfilling climax. By contrast, unpredictable melodic twists and turns in the 30-second plus Portrait (No. 14) keep listeners guessing in every measure. Also notice the shimmering delicacy of the unison lines in Le Jardin de Pétrarque (No. 38), while Noces du Duc de Joyeuse (No. 41) is a masterclass in how to sustain ceremonial momentum. In short, Le Rossignol éperdu is the early 20th Century’s answer to Mendelssohn’s Songs Without Words.

Tracklist:
1 Le rossignol éperdu, Série 1 "Première suite": No. 1, Frontispice 03:06
2 Le rossignol éperdu, Série 1 "Première suite": No. 2, Andromède résignée 01:54
3 Le rossignol éperdu, Série 1 "Première suite": No. 3, Douloureuse rêverie dans un bois de sapins 07:41
4 Le rossignol éperdu, Série 1 "Première suite": No. 4, Le bouquet de pensées 01:06
5 Le rossignol éperdu, Série 1 "Première suite": No. 5, Soleil d'automne 02:20
6 Le rossignol éperdu, Série 1 "Première suite": No. 6, Gretchen 02:27
7 Le rossignol éperdu, Série 1 "Première suite": No. 7, Les deux écharpes 01:16
8 Le rossignol éperdu, Série 1 "Première suite": No. 8, Liebe! Liebe! 00:55
9 Le rossignol éperdu, Série 1 "Première suite": No. 9, Eros caché dans les bois 02:09
10 Le rossignol éperdu, Série 1 "Première suite": No. 10, La fausse indifférence 01:56
11 Le rossignol éperdu, Série 1 "Première suite": No. 11, Chanson de midi 01:24
12 Le rossignol éperdu, Série 1 "Première suite": No. 12, Antiochus 03:12
13 Le rossignol éperdu, Série 1 "Première suite": No. 13, Nevermore 01:28
14 Le rossignol éperdu, Série 1 "Première suite": No. 14, Portrait 00:35
15 Le rossignol éperdu, Série 1 "Première suite": No. 15, L'enfant au perroquet 01:41
16 Le rossignol éperdu, Série 1 "Première suite": No. 16, Les rêveries du Prince Eglantine 01:57
17 Le rossignol éperdu, Série 1 "Première suite": No. 17, Ivresse 01:37
18 Le rossignol éperdu, Série 1 "Première suite": No. 18, L'arome suprême 01:21
19 Le rossignol éperdu, Série 1 "Première suite": No. 19, Berceuse féroce 03:38
20 Le rossignol éperdu, Série 1 "Première suite": No. 20, Passante 01:07
21 Le rossignol éperdu, Série 1 "Première suite": No. 21, La danse de l'amour et de l'ennui 03:02
22 Le rossignol éperdu, Série 1 "Première suite": No. 22, Ouranos 02:38
23 Le rossignol éperdu, Série 1 "Première suite": No. 23, Les héliotropes du Clos-André 01:35
24 Le rossignol éperdu, Série 1 "Première suite": No. 24, Effet de nuit sur la Seine 01:19
25 Le rossignol éperdu, Série 1 "Première suite": No. 25, Per i piccoli canali 05:53
26 Le rossignol éperdu, Série 1 "Première suite": No. 26, Mirage 01:18
27 Le rossignol éperdu, Série 1 "Première suite": No. 27, La danse de l'amour et du danger 02:52
28 Le rossignol éperdu, Série 1 "Première suite": No. 28, Matinée parisienne 03:03
29 Le rossignol éperdu, Série 1 "Première suite": No. 29, Chérubin tragique 02:05
30 Le rossignol éperdu, Série 1 "Première suite": No. 30, Les chênes enlacés 03:37
31 Le rossignol éperdu, Série 2 "Orient": No. 31, En caïque 02:38
32 Le rossignol éperdu, Série 2 "Orient": No. 32, Narghilé 03:07
33 Le rossignol éperdu, Série 2 "Orient": No. 33, Les chiens de Galata 03:13
34 Le rossignol éperdu, Série 2 "Orient": No. 34, Rêverie nocturne sur le Bosphore 03:27
35 Le rossignol éperdu, Série 2 "Orient": No. 35, La rose de Blida 01:44
36 Le rossignol éperdu, Série 2 "Orient": No. 36, L'oasis 01:43
37 Le rossignol éperdu, Série 3 "Carnet de voyage": No. 37, L'ange verrier 02:51
38 Le rossignol éperdu, Série 3 "Carnet de voyage": No. 38, Le jardin de Pétrarque 01:18
39 Le rossignol éperdu, Série 3 "Carnet de voyage": No. 39, La nativité 03:19
40 Le rossignol éperdu, Série 3 "Carnet de voyage": No. 40, Faunesse dansante 01:21
41 Le rossignol éperdu, Série 3 "Carnet de voyage": No. 41, Les noces du duc de Joyeuse 02:30
42 Le rossignol éperdu, Série 3 "Carnet de voyage": No. 42, Le petit mail 01:23
43 Le rossignol éperdu, Série 3 "Carnet de voyage": No. 43, Les pages d'Elisabeth 02:33
44 Le rossignol éperdu, Série 3 "Carnet de voyage": No. 44, La jeunesse et l'été 01:36
45 Le rossignol éperdu, Série 3 "Carnet de voyage": No. 45, Vieux bahuts 03:17
46 Le rossignol éperdu, Série 4 "Versailles": No. 46, Hommage à Martius 01:05
47 Le rossignol éperdu, Série 4 "Versailles": No. 47, La reine au jardin 01:14
48 Le rossignol éperdu, Série 4 "Versailles": No. 48, Le réveil de flore 03:12
49 Le rossignol éperdu, Série 4 "Versailles": No. 49, Le banc songeur 02:22
50 Le rossignol éperdu, Série 4 "Versailles": No. 50, La fête de Terpsichore 02:37
51 Le rossignol éperdu, Série 4 "Versailles": No. 51, Adieux au soir tombant 02:35
52 Le rossignol éperdu, Série 4 "Versailles": No. 52, Hivernale 04:10
53 Le rossignol éperdu, Série 4 "Versailles": No. 53, Pélerinage inutile 04:24

Personnel:
Yoonie Han, piano

foobar2000 1.3.7 / Dynamic Range Meter 1.1.1
log date: 2019-04-07 13:58:30

––––––––––––––––––––––––––––––––––––––––
Analyzed: Yoonie Han / Hahn: Le rossignol éperdu
––––––––––––––––––––––––––––––––––––––––

DR Peak RMS Duration Track
––––––––––––––––––––––––––––––––––––––––
DR14 -7.93 dB -27.53 dB 3:05 01-Le rossignol éperdu, Série 1 "Première suite": No. 1, Frontispice
DR13 -2.74 dB -19.42 dB 1:54 02-Le rossignol éperdu, Série 1 "Première suite": No. 2, Andromède résignée
DR13 -3.52 dB -22.47 dB 7:41 03-Le rossignol éperdu, Série 1 "Première suite": No. 3, Douloureuse rêverie dans un bois de sapins
DR11 -9.77 dB -24.19 dB 1:07 04-Le rossignol éperdu, Série 1 "Première suite": No. 4, Le bouquet de pensées
DR11 -5.63 dB -23.56 dB 2:21 05-Le rossignol éperdu, Série 1 "Première suite": No. 5, Soleil d'automne
DR11 -1.55 dB -17.45 dB 2:27 06-Le rossignol éperdu, Série 1 "Première suite": No. 6, Gretchen
DR11 -8.33 dB -22.85 dB 1:17 07-Le rossignol éperdu, Série 1 "Première suite": No. 7, Les deux écharpes
DR11 -1.19 dB -19.00 dB 0:55 08-Le rossignol éperdu, Série 1 "Première suite": No. 8, Liebe! Liebe!
DR13 -5.11 dB -22.38 dB 2:09 09-Le rossignol éperdu, Série 1 "Première suite": No. 9, Eros caché dans les bois
DR12 -8.86 dB -24.75 dB 1:56 10-Le rossignol éperdu, Série 1 "Première suite": No. 10, La fausse indifférence
DR12 -4.53 dB -20.10 dB 1:25 11-Le rossignol éperdu, Série 1 "Première suite": No. 11, Chanson de midi
DR18 -0.30 dB -23.78 dB 3:13 12-Le rossignol éperdu, Série 1 "Première suite": No. 12, Antiochus
DR12 -10.71 dB -25.91 dB 1:29 13-Le rossignol éperdu, Série 1 "Première suite": No. 13, Nevermore
DR10 -7.46 dB -22.62 dB 0:35 14-Le rossignol éperdu, Série 1 "Première suite": No. 14, Portrait
DR12 -6.24 dB -22.60 dB 1:42 15-Le rossignol éperdu, Série 1 "Première suite": No. 15, L'enfant au perroquet
DR12 -7.58 dB -23.09 dB 1:58 16-Le rossignol éperdu, Série 1 "Première suite": No. 16, Les rêveries du Prince Eglantine
DR13 -7.52 dB -25.58 dB 1:37 17-Le rossignol éperdu, Série 1 "Première suite": No. 17, Ivresse
DR12 -9.53 dB -25.82 dB 1:21 18-Le rossignol éperdu, Série 1 "Première suite": No. 18, L'arome suprême
DR12 -3.90 dB -21.76 dB 3:38 19-Le rossignol éperdu, Série 1 "Première suite": No. 19, Berceuse féroce
DR11 -7.49 dB -22.55 dB 1:07 20-Le rossignol éperdu, Série 1 "Première suite": No. 20, Passante
DR12 -6.35 dB -24.02 dB 3:03 21-Le rossignol éperdu, Série 1 "Première suite": No. 21, La danse de l'amour et de l'ennui
DR14 -11.39 dB -28.61 dB 2:39 22-Le rossignol éperdu, Série 1 "Première suite": No. 22, Ouranos
DR11 -7.14 dB -23.97 dB 1:36 23-Le rossignol éperdu, Série 1 "Première suite": No. 23, Les héliotropes du Clos-André
DR11 -2.61 dB -18.66 dB 1:19 24-Le rossignol éperdu, Série 1 "Première suite": No. 24, Effet de nuit sur la Seine
DR13 -3.25 dB -21.68 dB 5:53 25-Le rossignol éperdu, Série 1 "Première suite": No. 25, Per i piccoli canali
DR11 -9.28 dB -22.95 dB 1:18 26-Le rossignol éperdu, Série 1 "Première suite": No. 26, Mirage
DR12 -6.19 dB -23.23 dB 2:52 27-Le rossignol éperdu, Série 1 "Première suite": No. 27, La danse de l'amour et du danger
DR11 -5.69 dB -20.28 dB 3:03 28-Le rossignol éperdu, Série 1 "Première suite": No. 28, Matinée parisienne
DR13 -0.19 dB -16.19 dB 2:05 29-Le rossignol éperdu, Série 1 "Première suite": No. 29, Chérubin tragique
DR11 -5.10 dB -19.97 dB 3:38 30-Le rossignol éperdu, Série 1 "Première suite": No. 30, Les chênes enlacés
DR12 -6.10 dB -21.32 dB 2:39 31-Le rossignol éperdu, Série 2 "Orient": No. 31, En caïque
DR13 -6.52 dB -24.10 dB 3:07 32-Le rossignol éperdu, Série 2 "Orient": No. 32, Narghilé
DR12 -10.59 dB -25.36 dB 3:13 33-Le rossignol éperdu, Série 2 "Orient": No. 33, Les chiens de Galata
DR13 -7.03 dB -24.91 dB 3:27 34-Le rossignol éperdu, Série 2 "Orient": No. 34, Rêverie nocturne sur le Bosphore
DR11 -7.21 dB -22.76 dB 1:44 35-Le rossignol éperdu, Série 2 "Orient": No. 35, La rose de Blida
DR11 -9.19 dB -25.07 dB 1:43 36-Le rossignol éperdu, Série 2 "Orient": No. 36, L'oasis
DR12 -5.04 dB -19.67 dB 2:52 37-Le rossignol éperdu, Série 3 "Carnet de voyage": No. 37, L'ange verrier
DR13 -5.85 dB -23.39 dB 1:19 38-Le rossignol éperdu, Série 3 "Carnet de voyage": No. 38, Le jardin de Pétrarque
DR12 -7.71 dB -22.72 dB 3:20 39-Le rossignol éperdu, Série 3 "Carnet de voyage": No. 39, La nativité
DR12 -0.97 dB -17.68 dB 1:21 40-Le rossignol éperdu, Série 3 "Carnet de voyage": No. 40, Faunesse dansante
DR13 -2.98 dB -19.02 dB 2:30 41-Le rossignol éperdu, Série 3 "Carnet de voyage": No. 41, Les noces du duc de Joyeuse
DR12 -9.29 dB -25.01 dB 1:24 42-Le rossignol éperdu, Série 3 "Carnet de voyage": No. 42, Le petit mail
DR12 -0.19 dB -15.34 dB 2:34 43-Le rossignol éperdu, Série 3 "Carnet de voyage": No. 43, Les pages d'Elisabeth
DR11 -8.62 dB -24.56 dB 1:36 44-Le rossignol éperdu, Série 3 "Carnet de voyage": No. 44, La jeunesse et l'été
DR12 -5.88 dB -21.99 dB 3:17 45-Le rossignol éperdu, Série 3 "Carnet de voyage": No. 45, Vieux bahuts
DR12 -6.65 dB -21.22 dB 1:06 46-Le rossignol éperdu, Série 4 "Versailles": No. 46, Hommage à Martius
DR12 -6.84 dB -22.19 dB 1:14 47-Le rossignol éperdu, Série 4 "Versailles": No. 47, La reine au jardin
DR11 -4.60 dB -19.16 dB 3:13 48-Le rossignol éperdu, Série 4 "Versailles": No. 48, Le réveil de flore
DR14 -9.55 dB -26.95 dB 2:23 49-Le rossignol éperdu, Série 4 "Versailles": No. 49, Le banc songeur
DR13 -1.14 dB -19.30 dB 2:38 50-Le rossignol éperdu, Série 4 "Versailles": No. 50, La fête de Terpsichore
DR13 -3.29 dB -21.69 dB 2:35 51-Le rossignol éperdu, Série 4 "Versailles": No. 51, Adieux au soir tombant
DR13 -8.37 dB -26.92 dB 4:10 52-Le rossignol éperdu, Série 4 "Versailles": No. 52, Hivernale
DR14 -5.35 dB -23.11 dB 4:24 53-Le rossignol éperdu, Série 4 "Versailles": No. 53, Pélerinage inutile
––––––––––––––––––––––––––––––––––––––––

Number of tracks: 53
Official DR value: DR12

Samplerate: 192000 Hz
Channels: 2
Bits per sample: 24
Bitrate: 3872 kbps
Codec: FLAC
================================================================================


Thanks to the Original customer.