Tags
Language
Tags

Yoonie Han - Hollywood Romance (2020) [Official Digital Download 24/96]

Posted By: pyatak
Yoonie Han - Hollywood Romance (2020) [Official Digital Download 24/96]

Yoonie Han - Hollywood Romance (2020) [Official Digital Download 24/96]
FLAC (tracks) 24-bit/96 kHz | Front Cover | Time - 01:08:24 minutes | 1,27 GB
Classical | Label: Universal Music Ltd., Official Digital Download

Given Reynaldo Hahn’s high profile with the patrons of Paris’s pre-war artist salons, it’s not surprising that his original works for piano include a good number of short character pieces that exude charm.

Listeners coming to this exquisite body of work may initially find Hahn’s attractive if modestly deployed keyboard writing recalling or foreshadowing other composers: The sensuous, arching phrases of early Scriabin preludes, or the sparse lyricism of late Liszt. Fauré’s subtle harmonic palette may cast a benign shadow, or the effortless melodic fluidity of Massenet; or Satie at his least brash and ironic, or the delicate balance of Mompou’s piano miniatures.

Yet Hahn goes his own way. Listen to how the disarmingly simple ascending two-note motif of Éros caché dans les bois (No. 9) weaves in and out of a chromatically-oriented linear texture that sounds denser than it is. Antiochus (No. 12) focuses on an obsessive chordal pattern that assiduously builds to a fulfilling climax. By contrast, unpredictable melodic twists and turns in the 30-second plus Portrait (No. 14) keep listeners guessing in every measure. Also notice the shimmering delicacy of the unison lines in Le Jardin de Pétrarque (No. 38), while Noces du Duc de Joyeuse (No. 41) is a masterclass in how to sustain ceremonial momentum. In short, Le Rossignol éperdu is the early 20th Century’s answer to Mendelssohn’s Songs Without Words.

TRACKLIST

01. Yoonie Han - Rachmaninov: Andante cantabile (Arr. Yoonie Han)
02. Yoonie Han - Saint-Saëns: Le cygne (Arr. Godowski for Piano Solo)
03. Yoonie Han - Gershwin: Rhapsody in Blue (Arr. for Piano)
04. Yoonie Han - Debussy: 3. Clair de lune
05. Yoonie Han - Liszt: Widmung, S. 566 (after R. Schumann)
06. Yoonie Han - Liszt: Schwanengesang, S. 560 (after F. Schubert)
07. Yoonie Han - Offenbach: Barcarolle (Arr. M. Moszkowski)
08. Yoonie Han - Bach: 2. Siciliano (Arr. Friedman for Piano)
09. Yoonie Han - Wild: 7. The Man I Love
10. Yoonie Han - Satie: 1. Lent
11. Yoonie Han - Thalberg: 19. Casta diva, de l'opéra "Norma" (after V. Bellini)
12. Yoonie Han - Puccini: O mio babbino caro (Arr. Mikhashoff)
13. Yoonie Han - Schumann: 7. Träumerei

foobar2000 1.6.2 / Dynamic Range Meter 1.1.1
log date: 2020-11-30 20:12:18

––––––––––––––––––––––––––––––––––––––––
Analyzed: Yoonie Han / Hollywood Romance
––––––––––––––––––––––––––––––––––––––––

DR Peak RMS Duration Track
––––––––––––––––––––––––––––––––––––––––
DR13 -0.52 dB -19.16 dB 3:33 01-Rachmaninov: Andante cantabile (Arr. Yoonie Han)
DR13 -6.90 dB -25.13 dB 2:46 02-Saint-Saëns: Le cygne (Arr. Godowski for Piano Solo)
DR11 -0.51 dB -15.95 dB 16:52 03-Gershwin: Rhapsody in Blue (Arr. for Piano)
DR15 -6.48 dB -26.95 dB 4:50 04-Debussy: 3. Clair de lune
DR12 -0.52 dB -17.56 dB 4:02 05-Liszt: Widmung, S. 566 (after R. Schumann)
DR14 -4.91 dB -25.24 dB 6:41 06-Liszt: Schwanengesang, S. 560 (after F. Schubert)
DR15 -1.66 dB -22.09 dB 7:23 07-Offenbach: Barcarolle (Arr. M. Moszkowski)
DR13 -10.35 dB -28.42 dB 2:56 08-Bach: 2. Siciliano (Arr. Friedman for Piano)
DR14 -0.51 dB -19.46 dB 3:21 09-Wild: 7. The Man I Love
DR13 -11.81 dB -28.69 dB 3:19 10-Satie: 1. Lent
DR16 -2.35 dB -24.61 dB 6:15 11-Thalberg: 19. Casta diva, de l'opéra "Norma" (after V. Bellini)
DR13 -5.34 dB -25.99 dB 3:12 12-Puccini: O mio babbino caro (Arr. Mikhashoff)
DR14 -12.72 dB -31.68 dB 3:18 13-Schumann: 7. Träumerei
––––––––––––––––––––––––––––––––––––––––

Number of tracks: 13
Official DR value: DR13

Samplerate: 96000 Hz
Channels: 2
Bits per sample: 24
Bitrate: 2589 kbps
Codec: FLAC
================================================================================



Thanks to the Original customer.