Tags
Language
Tags

Orchestre Philharmonique Royal de Liège & Jean-Jacques Kantorow - Ysaÿe: Harmonies du soir (2014) [24/88]

Posted By: SERTiL
Orchestre Philharmonique Royal de Liège & Jean-Jacques Kantorow - Ysaÿe: Harmonies du soir (2014) [24/88]

Orchestre Philharmonique Royal de Liège & Jean-Jacques Kantorow - Ysaÿe: Harmonies du soir (2014)
FLAC (tracks) 24-bit/88.2 kHz | Time - 73:56 minutes | 1.26 GB
Studio Master, Official Digital Download | Artwork: Digital Booklet

Over time, the memory of Eugène Ysaÿe (Liège, 1858‑ Brussels, 1931) the brilliant virtuoso gradually supplanted that of Ysaÿe the composer in the public consciousness. It should be reminded that Eugène Ysaÿe created in his poems for string instruments a totally new and original genre, distinguishing himself by a competence in writing and a harmonic richness that were far removed from the purely virtuosic merits of his early compositions.

These poems are therefore thoroughly deserving of rediscovery. The French conductor Jean-Jacques Kantorow, Ysaÿe'ʹs great specialist, leads the Liège Royal Philharmonic and soloists through works for violin and orchestra, for cello and orchestra, for two violins and orchestra and for string quartet and orchestra.

Tracklist:

Eugène Ysaÿe (1858-1931)

01. Méditation pour violoncelle et orchestre, Op. 16
02. Harmonies du soir pour quatuor à cordes et orchestre, Op. 31
03. Poème élégiaque pour violon et orchestre, Op. 12
04. Sérénade pour violoncelle et orchestre, Op. 22
05. Amitié pour deux violons et orchestre, Op. 26
06. Exil pour orchestre à cordes, Op. 25

Personnel:
Liège Royal Philharmonic
Jean-Jacques Kantorow, conductor

foobar2000 1.3.7 / Dynamic Range Meter 1.1.1
log date: 2018-03-27 22:12:36

––––––––––––––––––––––––––––––––––––––––
Analyzed: Émilie Belaud, Olivier Giot, Orchestre Philharmonique Royal Liège, Jean-Jacques Kantorow / Ysaÿe: Harmonies du soir (1)
Orchestre Philharmonique Royal Liège, Jean-Jacques Kantorow / Ysaÿe: Harmonies du soir (2)
Quatuor Ardente, Orchestre Philharmonique Royal Liège, Jean-Jacques Kantorow / Ysaÿe: Harmonies du soir (3)
Tatiana Samouil, Orchestre Philharmonique Royal Liège, Jean-Jacques Kantorow / Ysaÿe: Harmonies du soir (4)
Thibault Lavrenov, Orchestre Philharmonique Royal Liège, Jean-Jacques Kantorow / Ysaÿe: Harmonies du soir (5-6)
––––––––––––––––––––––––––––––––––––––––

DR Peak RMS Duration Track
––––––––––––––––––––––––––––––––––––––––
DR13 -0.20 dB -19.61 dB 16:48 05-Amitié pour deux violons et orchestre, Op. 26
DR14 -0.93 dB -22.24 dB 8:06 06-Exil pour orchestre à cordes, Op. 25
DR12 -3.80 dB -21.36 dB 14:00 02-Harmonies du soir pour quatuor à cordes et orchestre, Op. 31
DR10 -0.80 dB -16.13 dB 15:06 03-Poème élégiaque pour violon et orchestre, Op. 12
DR12 -0.20 dB -17.77 dB 12:37 01-Méditation pour violoncelle et orchestre, Op. 16
DR14 -0.20 dB -19.63 dB 7:21 04-Sérénade pour violoncelle et orchestre, Op. 22
––––––––––––––––––––––––––––––––––––––––

Number of tracks: 6
Official DR value: DR13

Samplerate: 88200 Hz
Channels: 2
Bits per sample: 24
Bitrate: 2399 kbps
Codec: FLAC
================================================================================


Thanks to the Original customer.