Tags
Language
Tags

Akiko Suwanai - J.S. Bach: Sonatas and Partitas for Solo Violin (2022) [Official Digital Download 24/192]

Posted By: delpotro
Akiko Suwanai - J.S. Bach: Sonatas and Partitas for Solo Violin (2022) [Official Digital Download 24/192]

Akiko Suwanai - J.S. Bach: Sonatas and Partitas for Solo Violin (2022)
FLAC (tracks) 24-bit/192 kHz | Front Cover | Time - 140:23 minutes | 4,9 GB
Classical | Label: Decca Classics, Official Digital Download

Akiko Suwanai releases Bach’s Complete Sonatas and Partitas for Solo Violin on Universal Music Japan, 25 years since releasing her first disc and the first recording to be made on her ​‘Charles Reade’ Guarneri del Gesu violin, generously loaned to her by Japanese-American collector and philanthropist, Dr. Ryuji Ueno. Recorded at the White Church in Baarn in the Netherlands the album will be available for worldwide digital release on 19 January.

Tracklist:
Disc 1 (01:10:35)
1. Sonata for Violin Solo No. 1 in G Minor, BWV 1001: I. Adagio (04:51)
2. Sonata for Violin Solo No. 1 in G Minor, BWV 1001: II. Fuga. Allegro (05:15)
3. Sonata for Violin Solo No. 1 in G Minor, BWV 1001: III. Siciliana (03:24)
4. Sonata for Violin Solo No. 1 in G Minor, BWV 1001: IV. Presto (03:23)
5. Partita for Violin Solo No. 1 in B Minor, BWV 1002: I. Allemanda (06:04)
6. Partita for Violin Solo No. 1 in B Minor, BWV 1002: II. Double (03:55)
7. Partita for Violin Solo No. 1 in B Minor, BWV 1002: III. Corrente (03:34)
8. Partita for Violin Solo No. 1 in B Minor, BWV 1002: IV. Double. Presto (03:24)
9. Partita for Violin Solo No. 1 in B Minor, BWV 1002: V. Sarabande (03:49)
10. Partita for Violin Solo No. 1 in B Minor, BWV 1002: VI. Double (03:11)
11. Partita for Violin Solo No. 1 in B Minor, BWV 1002: VII. Tempo di Borea (03:26)
12. Partita for Violin Solo No. 1 in B Minor, BWV 1002: VIII. Double (03:41)
13. Sonata for Violin Solo No. 2 in A Minor, BWV 1003: I. Grave (04:34)
14. Sonata for Violin Solo No. 2 in A Minor, BWV 1003: II. Fuga (07:07)
15. Sonata for Violin Solo No. 2 in A Minor, BWV 1003: III. Andante (05:42)
16. Sonata for Violin Solo No. 2 in A Minor, BWV 1003: IV. Allegro (05:15)

Disc 2 (01:09:32)
1. Partita for Violin Solo No. 2 in D Minor, BWV 1004: I. Allemanda (04:26)
2. Partita for Violin Solo No. 2 in D Minor, BWV 1004: II. Corrente (02:32)
3. Partita for Violin Solo No. 2 in D Minor, BWV 1004: III. Sarabanda (03:44)
4. Partita for Violin Solo No. 2 in D Minor, BWV 1004: IV. Giga (03:48)
5. Partita for Violin Solo No. 2 in D Minor, BWV 1004: V. Ciaccona (14:58)
6. Sonata for Violin Solo No. 3 in C Major, BWV 1005: I. Adagio (04:41)
7. Sonata for Violin Solo No. 3 in C Major, BWV 1005: II. Fuga (08:53)
8. Sonata for Violin Solo No. 3 in C Major, BWV 1005: III. Largo (03:28)
9. Sonata for Violin Solo No. 3 in C Major, BWV 1005: IV. Allegro assai (04:54)
10. Partita for Violin Solo No. 3 in E Major, BWV 1006: I. Preludio (03:27)
11. Partita for Violin Solo No. 3 in E Major, BWV 1006: II. Loure (04:46)
12. Partita for Violin Solo No. 3 in E Major, BWV 1006: III. Gavotte en Rondeau (03:02)
13. Partita for Violin Solo No. 3 in E Major, BWV 1006: IV. Menuet I / Menuet II (03:23)
14. Partita for Violin Solo No. 3 in E Major, BWV 1006: V. Bourrée (01:26)
15. Partita for Violin Solo No. 3 in E Major, BWV 1006: VI. Gigue (02:04)

foobar2000 1.4.1 / Dynamic Range Meter 1.1.1
log date: 2022-01-31 16:24:29

––––––––––––––––––––––––––––––––––––––––
Analyzed: Akiko Suwanai / J.S. Bach: Sonatas and Partitas for Solo Violin
––––––––––––––––––––––––––––––––––––––––

DR Peak RMS Duration Track
––––––––––––––––––––––––––––––––––––––––
DR13 -8.28 dB -26.07 dB 4:52 01-1. Adagio
DR13 -2.25 dB -19.64 dB 5:16 02-2. Fuga. Allegro
DR13 -9.17 dB -26.68 dB 3:25 03-3. Siciliana
DR15 -0.38 dB -21.85 dB 3:24 04-4. Presto
DR13 -5.83 dB -23.80 dB 6:05 05-1. Allemanda
DR14 -7.05 dB -26.18 dB 3:55 06-2. Double
DR13 -5.50 dB -22.51 dB 3:35 07-3. Corrente
DR15 -5.02 dB -22.70 dB 3:25 08-4. Double. Presto
DR12 -7.37 dB -23.09 dB 3:49 09-5. Sarabande
DR13 -5.78 dB -25.18 dB 3:11 10-6. Double
DR14 -2.97 dB -20.49 dB 3:26 11-7. Tempo di Borea
DR12 -6.13 dB -22.05 dB 3:42 12-8. Double
DR14 -5.56 dB -24.95 dB 4:35 13-1. Grave
DR13 -3.64 dB -20.45 dB 7:07 14-2. Fuga
DR13 -7.13 dB -25.62 dB 5:43 15-3. Andante
DR14 -3.17 dB -21.45 dB 5:15 16-4. Allegro
––––––––––––––––––––––––––––––––––––––––

Number of tracks: 16
Official DR value: DR13

Samplerate: 192000 Hz
Channels: 2
Bits per sample: 24
Bitrate: 5086 kbps
Codec: FLAC
================================================================================

foobar2000 1.4.1 / Dynamic Range Meter 1.1.1
log date: 2022-01-31 16:28:15

––––––––––––––––––––––––––––––––––––––––
Analyzed: Akiko Suwanai / J.S. Bach: Sonatas and Partitas for Solo Violin
––––––––––––––––––––––––––––––––––––––––

DR Peak RMS Duration Track
––––––––––––––––––––––––––––––––––––––––
DR14 -4.09 dB -21.93 dB 4:26 01-1. Allemanda
DR12 -6.78 dB -22.70 dB 2:33 02-2. Corrente
DR13 -8.00 dB -24.59 dB 3:44 03-3. Sarabanda
DR13 -4.76 dB -20.90 dB 3:49 04-4. Giga
DR14 -2.96 dB -21.98 dB 14:58 05-5. Ciaccona
DR12 -7.47 dB -24.55 dB 4:41 06-1. Adagio
DR13 -4.05 dB -20.43 dB 8:53 07-2. Fuga
DR13 -7.76 dB -25.53 dB 3:29 08-3. Largo
DR14 -5.67 dB -23.74 dB 4:54 09-4. Allegro assai
DR13 -4.89 dB -21.73 dB 3:28 10-1. Preludio
DR13 -9.12 dB -25.68 dB 4:47 11-2. Loure
DR13 -5.69 dB -23.05 dB 3:02 12-3. Gavotte en Rondeau
DR14 -6.11 dB -24.38 dB 3:24 13-4. Menuet I / Menuet II
DR15 -3.13 dB -22.47 dB 1:26 14-5. Bourrée
DR14 -6.46 dB -24.01 dB 2:04 15-6. Gigue
––––––––––––––––––––––––––––––––––––––––

Number of tracks: 15
Official DR value: DR13

Samplerate: 192000 Hz
Channels: 2
Bits per sample: 24
Bitrate: 4831 kbps
Codec: FLAC
================================================================================


Thanks to the Original customer!