Subcategories

Alexis Cole & Bucky Pizzarelli - A Beautiful Friendship (2015) [Japan] SACD ISO + Hi-Res FLAC

Posted By: HDAtall
Alexis Cole & Bucky Pizzarelli - A Beautiful Friendship (2015) [Japan] SACD ISO + Hi-Res FLAC

Alexis Cole & Bucky Pizzarelli - A Beautiful Friendship (2015) [Venus Japan # VHGD-84]
SACD Rip | SACD ISO | DSD64 2.0 > 1-bit/2.8224 MHz | 54:27 minutes | Front/Rear Covers | 1,78 GB
or FLAC(converted with foobar2000 to tracks) 24bit/88,2 kHz | Front/Rear Covers | 1,13 GB

Called "one of the great voices of today," by Jonathan Schwartz, Alexis Cole has been compared to classic jazz singers such as Sarah Vaughan and Anita O'Day. She's performed with the Boston Pops and New York Philharmonic on stage at venues from Avery Fisher Hall to the Kennedy Center.Her nine recordings, which feature musical luminaries such as Fred Hersch, Eric Alexander, Matt Wilson, Harry Pickens, Don Braden and Pat LaBarbara, have received high praise in the jazz press and are spun on radio world-wide. In addition to her many performances on great stages, Alexis can be seen at top jazz venues like Dizzy's Club at Jazz at Lincoln Center, Birdland, The Jazz Standard, Blues Alley, and Billboard Live, Tokyo. Cole is the recipient of a Swing Journal Gold Disk award, and was a winner of the NY Jazzmobile and Montreux Jazz Festival vocal competitions, and a finalist of the Sarah Vaughan Competition.

Bucky Pizzarelli is an American jazz guitarist and banjoist, and the father of jazz guitarist John Pizzarelli and upright bassist Martin Pizzarelli. The list of musicians Pizzarelli has collaborated with over his career includes Les Paul, Stephane Grappelli, and Benny Goodman. Pizzarelli acknowledges Django Reinhardt, Freddie Green, and George Van Eps for their influences on his style and mode of play.

Tracklist:

01. A Beautiful Friendship
02. East Of The Sun
03. Honeysuckle Rose
04. I Thought About You
05. If I Were A Bell
06. Just Friends
07. Mood Indigo
08. Blue Moon ~ Moonglow
09. On The Street Where You Live
10. Stardust
11. Srompin' At The Savoy
12. On The Sunny Side Of The Street
13. These Foolish Things
14. Watch What Happens

Produced, Mixed & Mastered by Tetsuo Hara. Engineered by Isaiah Abolin.
Recorded at Trading 8s Recording Studio in New York on October 1-2, 2014.
Venus Hyper Magnum Sound Direct Mix. VENUS Japan # VHGD-84.

Personnel
Alexis Cole - vocals
Bucky Pizzarelli - guitar
Nicki Parrott - bass, vocals
Frank Vignola - guitar
Anat Cohen - clarinet
Warren Vache - trumpet

foobar2000 1.3.16 / Dynamic Range Meter 1.1.1

––––––––––––––––––––––––––––––––––––––––
Analyzed: Alexis Cole & Bucky Pizzarelli ~ featuring Nicki Parrott / A Beautiful Friendship
––––––––––––––––––––––––––––––––––––––––

DR Peak RMS Duration Track
––––––––––––––––––––––––––––––––––––––––
DR8 -3.90 dB -12.99 dB 4:17 01-A Beautiful Friendship
DR8 -3.90 dB -13.18 dB 4:04 02-East Of The Sun
DR7 -4.29 dB -13.20 dB 3:26 03-Honeysuckle Rose
DR7 -3.84 dB -12.52 dB 5:17 04-I Thought About You
DR8 -3.69 dB -12.68 dB 3:29 05-If I Were A Bell
DR7 -4.30 dB -12.75 dB 3:37 06-Just Friends
DR7 -4.13 dB -12.65 dB 3:51 07-Mood Indigo
DR7 -4.37 dB -13.34 dB 3:41 08-Blue Moon ~ Moonglow
DR8 -3.63 dB -13.22 dB 5:37 09-On The Street Where You Live
DR9 -6.32 dB -17.88 dB 2:55 10-Stardust
DR8 -3.98 dB -12.73 dB 3:44 11-Srompin' At The Savoy
DR8 -3.88 dB -12.50 dB 3:16 12-On The Sunny Side Of The Street
DR8 -4.48 dB -14.88 dB 3:02 13-These Foolish Things
DR9 -4.17 dB -14.17 dB 4:10 14-Watch What Happens
––––––––––––––––––––––––––––––––––––––––

Number of tracks: 14
Official DR value: DR8

Samplerate: 2822400 Hz / PCM Samplerate: 88200 Hz
Channels: 2
Bits per sample: 1
Bitrate: 5645 kbps
Codec: DSD64


Thanks to jazzyman!
Uncompressed SACD ISO size > 2,2 GB
>