Alicia Keys - ALICIA [Deluxe] (2020) [Official Digital Download]

Posted By: El Misha
Alicia Keys - ALICIA [Deluxe] (2020) [Official Digital Download]

Alicia Keys - ALICIA [Deluxe] (2020)
FLAC (tracks) 24-bit/44.10-48 kHz | Time - 01:06:48 | 738 MB
Studio Master, Official Digital Download | Artwork: Front cover

Alicia Keys is ready for a new era. The singer releases her 7th studio album A.L.I.C.I.A. which includes the previously released tracks Underdog and Time Machine.



Tracklist:

01. Alicia Keys - Truth Without Love
02. Alicia Keys - Time Machine
03. Alicia Keys - Authors Of Forever
04. Alicia Keys - Wasted Energy
05. Alicia Keys - Underdog
06. Alicia Keys - 3 Hour Drive
07. Alicia Keys - Me x 7
08. Alicia Keys - Show Me Love
09. Alicia Keys - So Done
10. Alicia Keys - Gramercy Park
11. Alicia Keys - Love Looks Better
12. Alicia Keys - You Save Me
13. Alicia Keys - Jill Scott
14. Alicia Keys - Perfect Way To Die
15. Alicia Keys - Good Job
16. Alicia Keys - Three Hour Drive - A COLORS SHOW
17. Alicia Keys - A Beautiful Noise
18. Alicia Keys - Wasted Energy

foobar2000 1.4 / Dynamic Range Meter 1.1.1
log date: 2020-12-20 09:24:38

––––––––––––––––––––––––––––––––––––––––
Analyzed: Alicia Keys / ALICIA (Explicit)
––––––––––––––––––––––––––––––––––––––––

DR Peak RMS Duration Track
––––––––––––––––––––––––––––––––––––––––
DR5 0.00 dB -6.30 dB 2:34 01-Truth Without Love
DR4 0.00 dB -6.46 dB 4:26 02-Time Machine
DR5 0.00 dB -6.58 dB 3:38 03-Authors Of Forever
DR6 -0.10 dB -8.13 dB 4:19 04-Wasted Energy
DR5 0.00 dB -7.17 dB 3:24 05-Underdog
DR7 -0.10 dB -9.06 dB 4:01 06-3 Hour Drive
DR7 -0.10 dB -8.05 dB 3:33 07-Me x 7
DR6 -0.67 dB -8.13 dB 3:09 08-Show Me Love
DR6 -1.10 dB -8.64 dB 3:55 09-So Done
DR7 -0.10 dB -10.21 dB 3:12 10-Gramercy Park
DR5 0.00 dB -7.08 dB 3:23 11-Love Looks Better
DR8 -0.03 dB -10.53 dB 3:41 12-You Save Me
DR7 0.00 dB -8.91 dB 4:05 13-Jill Scott
DR7 -0.25 dB -8.51 dB 3:31 14-Perfect Way To Die
DR7 0.00 dB -9.82 dB 3:53 15-Good Job
DR7 0.00 dB -8.58 dB 4:05 16-Three Hour Drive - A COLORS SHOW
DR7 0.00 dB -9.81 dB 3:19 17-A Beautiful Noise
––––––––––––––––––––––––––––––––––––––––

Number of tracks: 17
Official DR value: DR6

Samplerate: 44100 Hz
Channels: 2
Bits per sample: 24
Bitrate: 1484 kbps
Codec: FLAC
================================================================================

––––––––––––––––––––––––––––––––––––––––
Statistics for: 18-Wasted Energy
Number of samples: 13325281
Duration: 4:38
––––––––––––––––––––––––––––––––––––––––

Left Right

Peak Value: -0.10 dB –- -0.10 dB
Avg RMS: -7.68 dB –- -7.48 dB
DR channel: 5.71 dB –- 5.55 dB
––––––––––––––––––––––––––––––––––––––––

Official DR Value: DR6

Samplerate: 48000 Hz
Channels: 2
Bits per sample: 24
Bitrate: 1652 kbps
Codec: FLAC
================================================================================


Thanks to the Original customer!