amarcord, Calmus Ensemble, Anna Kellnhofer & Isabel Schicketanz - Leipziger Disputation (2019) [24/96]

Posted By: SERTiL
amarcord, Calmus Ensemble, Anna Kellnhofer & Isabel Schicketanz - Leipziger Disputation (2019) [24/96]

amarcord, Calmus Ensemble, Anna Kellnhofer & Isabel Schicketanz - Leipziger Disputation (2019)
FLAC (tracks) 24-bit/96 kHz | Time - 75:17 minutes | 1.40 GB
Studio Master, Official Digital Download | Artwork: Digital Booklet

The first joint project of the internationally renowned Leipzig vocal ensembles amarcord and Calmus: The centerpiece is the splendid sonority of the ­twelve-part Mass by Antoine Brumel, which is said to have been performed on the occasion of the famous disputation between Martin Luther and theologian Johannes Eck 1519 in St. ­Thomas’s Church. A highlight of musical life in Leipzig and, at the same time, a milestone in polyphonic vocal music. The mass is complemented by compositions by Josquin des Préz, Johann Walter, Thomas Stoltzer and others.

Tracklist:
01. Et ecce terrae motus
02. Missa Et ecce terræ motus: I. Kyrie
03. Missa Et ecce terræ motus: II. Gloria
04. De profundis clamavi à 5
05. Aus tiefer Not schrei ich zu dir
06. Locus iste
07. Missa Et ecce terræ motus: III. Credo
08. Beati immaculati in via
09. Domine Deus
10. Missa Et ecce terræ motus: IV. Sanctus
11. Usqueqo domine
12. Herr, wie lang wilt du mein so gar vergessen
13. Missa Et ecce terræ motus: Va. Agnus Dei I
14. Missa Et ecce terræ motus: Vb. Agnus Dei II
15. Missa Tempore paschali: V. Agnus Dei

Personnel:
Anna Kellnhofer, soprano
Isabel Schicketanz, soprano
Amarcord
Calmus Ensemble

foobar2000 1.3.7 / Dynamic Range Meter 1.1.1
log date: 2019-04-07 14:22:41

––––––––––––––––––––––––––––––––––––––––
Analyzed: amarcord, Calmus Ensemble, Anna Kellnhofer & Isabel Schicketanz / Leipziger Disputation
––––––––––––––––––––––––––––––––––––––––

DR Peak RMS Duration Track
––––––––––––––––––––––––––––––––––––––––
DR11 -13.88 dB -29.65 dB 0:33 01-Et ecce terrae motus
DR10 -2.73 dB -16.94 dB 5:47 02-Missa Et ecce terræ motus: I. Kyrie
DR11 -2.61 dB -17.71 dB 8:35 03-Missa Et ecce terræ motus: II. Gloria
DR11 -3.24 dB -21.07 dB 4:39 04-De profundis clamavi à 5
DR12 -4.70 dB -22.61 dB 3:01 05-Aus tiefer Not schrei ich zu dir
DR11 -16.26 dB -31.02 dB 1:13 06-Locus iste
DR11 -2.37 dB -17.54 dB 9:14 07-Missa Et ecce terræ motus: III. Credo
DR12 -3.46 dB -20.99 dB 6:21 08-Beati immaculati in via
DR12 -14.83 dB -30.84 dB 2:30 09-Domine Deus
DR11 -2.32 dB -18.08 dB 11:57 10-Missa Et ecce terræ motus: IV. Sanctus
DR13 -5.95 dB -23.69 dB 7:02 11-Usqueqo domine
DR13 -3.28 dB -20.43 dB 5:44 12-Herr, wie lang wilt du mein so gar vergessen
DR11 -5.18 dB -22.31 dB 2:54 13-Missa Et ecce terræ motus: Va. Agnus Dei I
DR11 -6.81 dB -22.54 dB 3:22 14-Missa Et ecce terræ motus: Vb. Agnus Dei II
DR11 -2.93 dB -16.11 dB 2:35 15-Missa Tempore paschali: V. Agnus Dei
––––––––––––––––––––––––––––––––––––––––

Number of tracks: 15
Official DR value: DR11

Samplerate: 96000 Hz
Channels: 2
Bits per sample: 24
Bitrate: 2770 kbps
Codec: FLAC
================================================================================


Thanks to the Original customer.