Tags
Language
Tags
March 2024
Su Mo Tu We Th Fr Sa
25 26 27 28 29 1 2
3 4 5 6 7 8 9
10 11 12 13 14 15 16
17 18 19 20 21 22 23
24 25 26 27 28 29 30
31 1 2 3 4 5 6
Attention❗ To save your time, in order to download anything on this site, you must be registered 👉 HERE. If you do not have a registration yet, it is better to do it right away. ✌

( • )( • ) ( ͡⚆ ͜ʖ ͡⚆ ) (‿ˠ‿)
SpicyMags.xyz

Ana Belen & Victor Manuel - Canciones Regaladas (2015) [Official Digital Download 24-bit/96kHz]

Posted By: HDV
Ana Belen & Victor Manuel - Canciones Regaladas (2015) [Official Digital Download 24-bit/96kHz]

Ana Belén, Victor Manuel - Canciones Regaladas (2015)
FLAC (tracks) 24-bit/96 kHz | Time - 51:24 minutes | 1,05 GB
Studio Master, Official Digital Download | Artwork: Front cover

Ana Belén and Víctor Manuel are back with an sensational album. It's been 30 years they recorded their last album “Para la ternura siempre hay tiempo / There is always time for tenderness”. Now, they come back with confidence and strength with “Canciones regaladas / Gift songs”, 12 beautiful and extraordinary songs written by Rubén Blades, Leonard Cohen, José Alfredo Jiménez, Carlos Berlanga, Chico Buarque, Astor Piazzolla, Billy Joel or José Alfonso.

Tracklist:

01 - El Padre Antonio y el Monaguillo Andres
02 - Verano
03 - En el Ultimo Trago
04 - Quiereme Tal Como Soy
05 - Aleluya
06 - Como Pudiste Hacerme Esto a Mi
07 - Todo Cambia
08 - Al Fin
09 - La Guerra de las Rosas
10 - Anos Dorados
11 - Los Pajaros Perdidos
12 - Choca Esos Cinco

Analyzed: Ana Belén, Victor Manuel / Canciones Regaladas
––––––––––––––––––––––––––––––––––––––––

DR Peak RMS Duration Track
––––––––––––––––––––––––––––––––––––––––
DR9 -1.22 dB -11.60 dB 5:24 01-El Padre Antonio y el Monaguillo Andres
DR8 -1.22 dB -11.97 dB 4:47 02-Verano
DR10 -1.22 dB -13.52 dB 4:12 03-En el Ultimo Trago
DR10 -1.22 dB -13.62 dB 4:30 04-Quiereme Tal Como Soy
DR10 -1.22 dB -13.78 dB 4:32 05-Aleluya
DR9 -1.22 dB -12.61 dB 4:19 06-Como Pudiste Hacerme Esto a Mi
DR9 -1.22 dB -12.49 dB 4:03 07-Todo Cambia
DR9 -1.22 dB -12.26 dB 3:49 08-Al Fin
DR11 -1.22 dB -13.05 dB 3:36 09-La Guerra de las Rosas
DR10 -1.22 dB -13.34 dB 3:53 10-Anos Dorados
DR9 -1.22 dB -12.78 dB 4:02 11-Los Pajaros Perdidos
DR10 -1.22 dB -12.18 dB 4:17 12-Choca Esos Cinco
––––––––––––––––––––––––––––––––––––––––

Number of tracks: 12
Official DR value: DR9

Samplerate: 96000 Hz
Channels: 2
Bits per sample: 24
Bitrate: 2956 kbps
Codec: FLAC
================================================================================


Thanks to the Original customer!