Tags
Language
Tags

Andri Björn Róbertsson & Ástríður Alda Sigurðardóttir - Thorsteinson & Schumann (2021) [Official Digital Download 24/96]

Posted By: delpotro
Andri Björn Róbertsson & Ástríður Alda Sigurðardóttir - Thorsteinson & Schumann (2021) [Official Digital Download 24/96]

Andri Björn Róbertsson & Ástríður Alda Sigurðardóttir - Thorsteinson & Schumann (2021)
FLAC (tracks) 24-bit/96 kHz | Front Cover | Time - 72:22 minutes | 1,07 GB
Classical, Vocal | Label: Fuga Libera, Official Digital Download

Icelandic bass-baritone Andri Björn Róbertsson, and pianist Ástríður Alda Sigurðardóttir, perform Robert Schumann’s Liederkreis op. 24 and Liederkreis op. 39, along with seven songs by the Icelandic composer Árni Thorsteinson. The two Liederkreise were composed during Schumann´s Year of Song in 1840. More than sixty years later Thorsteinson began publishing his songs, and they were instantly regarded as national treasures by the Icelandic nation. The programme invites the listener on a mysterious journey through nature, love, death and the unknown.

Tracklist:
1. Liederkreis Op. 24: I. Morgens steh’ ich auf und frage (01:08)
2. Liederkreis Op. 24: II. Es treibt mich hin (01:24)
3. Liederkreis Op. 24: III. Ich wandelte unter den Bäumen (03:42)
4. Liederkreis Op. 24: IV. Lieb’ Liebchen, leg’s Händchen (00:53)
5. Liederkreis Op. 24: V. Schöne Wiege meiner Leiden (04:10)
6. Liederkreis Op. 24: VI. Warte, warte wilder Schiffmann (02:16)
7. Liederkreis Op. 24: VII. Berg' und Burgen schau'n herunter (03:45)
8. Liederkreis Op. 24: VIII. Anfangs wollt’ ich fast verzagen (01:01)
9. Liederkreis Op. 24: IX. Mit Myrten und Rosen (04:08)
10. Þess bera menn sár (04:33)
11. Kirkjuhvoll (02:20)
12. Vorgyðjan kemur (02:19)
13. Friður á jörðu (04:04)
14. Rósin (02:38)
15. Fögur sem forðum (02:21)
16. Nótt (03:56)
17. Liederkreis Op. 39: I. In der Fremde (02:18)
18. Liederkreis Op. 39: II. Intermezzo (01:50)
19. Liederkreis Op. 39: III. Waldesgespräch (02:28)
20. Liederkreis Op. 39: IV. Die Stille (01:32)
21. Liederkreis Op. 39: V. Mondnacht (04:06)
22. Liederkreis Op. 39: VI. Schöne Fremde (01:24)
23. Liederkreis Op. 39: VII. Auf einer Burg (03:22)
24. Liederkreis Op. 39: VIII. In der Fremde (01:28)
25. Liederkreis Op. 39: IX. Wehmut (02:48)
26. Liederkreis Op. 39: X. Zwielicht (03:21)
27. Liederkreis Op. 39: XI. Im Walde (01:33)
28. Liederkreis Op. 39: XII. Frühlingsnacht (01:21)

foobar2000 1.4.1 / Dynamic Range Meter 1.1.1
log date: 2021-10-21 16:01:58

––––––––––––––––––––––––––––––––––––––––
Analyzed: Andri Björn Róbertsson & Ástríður Alda Sigurðardóttir / Thorsteinson & Schumann
––––––––––––––––––––––––––––––––––––––––

DR Peak RMS Duration Track
––––––––––––––––––––––––––––––––––––––––
DR12 -6.19 dB -24.77 dB 1:08 01-Schumann: Liederkreis Op. 24: I. Morgens steh’ ich auf und frage
DR13 -2.32 dB -21.08 dB 1:24 02-Schumann: Liederkreis Op. 24: II. Es treibt mich hin
DR14 -3.68 dB -25.08 dB 3:43 03-Schumann: Liederkreis Op. 24: III. Ich wandelte unter den Bäumen
DR13 -6.08 dB -25.08 dB 0:53 04-Schumann: Liederkreis Op. 24: IV. Lieb’ Liebchen, leg’s Händchen
DR14 -2.02 dB -22.87 dB 4:11 05-Schumann: Liederkreis Op. 24: V. Schöne Wiege meiner Leiden
DR14 -1.88 dB -20.30 dB 2:17 06-Schumann: Liederkreis Op. 24: VI. Warte, warte wilder Schiffmann
DR13 -5.34 dB -23.76 dB 3:46 07-Schumann: Liederkreis Op. 24: VII. Berg' und Burgen schau'n herunter
DR12 -5.70 dB -24.04 dB 1:02 08-Schumann: Liederkreis Op. 24: VIII. Anfangs wollt’ ich fast verzagen
DR15 -1.92 dB -23.09 dB 4:08 09-Schumann: Liederkreis Op. 24: IX. Mit Myrten und Rosen
DR15 -3.68 dB -25.06 dB 4:34 10-Thorsteinson: Þess bera menn sár
DR14 -2.64 dB -23.62 dB 2:20 11-Thorsteinson: Kirkjuhvoll
DR14 -0.30 dB -20.53 dB 2:20 12-Thorsteinson: Vorgyðjan kemur
DR13 -4.91 dB -25.14 dB 4:04 13-Thorsteinson: Friður á jörðu
DR14 -9.73 dB -29.02 dB 2:38 14-Thorsteinson: Rósin
DR12 -1.86 dB -20.57 dB 2:22 15-Thorsteinson: Fögur sem forðum
DR15 -3.00 dB -26.23 dB 3:56 16-Thorsteinson: Nótt
DR12 -8.65 dB -26.20 dB 2:18 17-Schumann: Liederkreis Op. 39: I. In der Fremde
DR15 -2.07 dB -23.20 dB 1:50 18-Schumann: Liederkreis Op. 39: II. Intermezzo
DR13 -1.58 dB -20.99 dB 2:28 19-Schumann: Liederkreis Op. 39: III. Waldesgespräch
DR13 -3.54 dB -23.54 dB 1:33 20-Schumann: Liederkreis Op. 39: IV. Die Stille
DR12 -4.12 dB -24.09 dB 4:06 21-Schumann: Liederkreis Op. 39: V. Mondnacht
DR12 -2.53 dB -20.80 dB 1:25 22-Schumann: Liederkreis Op. 39: VI. Schöne Fremde
DR14 -5.17 dB -25.26 dB 3:22 23-Schumann: Liederkreis Op. 39: VII. Auf einer Burg
DR14 -4.62 dB -22.34 dB 1:28 24-Schumann: Liederkreis Op. 39: VIII. In der Fremde
DR13 -5.32 dB -24.98 dB 2:48 25-Schumann: Liederkreis Op. 39: IX. Wehmut
DR16 -3.06 dB -25.49 dB 3:21 26-Schumann: Liederkreis Op. 39: X. Zwielicht
DR14 -3.73 dB -23.50 dB 1:34 27-Schumann: Liederkreis Op. 39: XI. Im Walde
DR11 -3.00 dB -19.53 dB 1:22 28-Schumann: Liederkreis Op. 39: XII. Frühlingsnacht
––––––––––––––––––––––––––––––––––––––––

Number of tracks: 28
Official DR value: DR13

Samplerate: 96000 Hz
Channels: 2
Bits per sample: 24
Bitrate: 2170 kbps
Codec: FLAC
================================================================================


Thanks to the Original customer!