Tags
Language
Tags
June 2024
Su Mo Tu We Th Fr Sa
26 27 28 29 30 31 1
2 3 4 5 6 7 8
9 10 11 12 13 14 15
16 17 18 19 20 21 22
23 24 25 26 27 28 29
30 1 2 3 4 5 6

Angela Hewitt - Beethoven: Piano Sonatas Op. 106 "Hammerklavier" & Op. 111 (2022) [Official Digital Download 24/96]

Posted By: delpotro
Angela Hewitt - Beethoven: Piano Sonatas Op. 106 "Hammerklavier" & Op. 111 (2022) [Official Digital Download 24/96]

Angela Hewitt - Beethoven: Piano Sonatas Op. 106 "Hammerklavier" & Op. 111 (2022)
FLAC (tracks) 24-bit/96 kHz | Front Cover & Digital Booklet | Time - 78:18 minutes | 1,35 GB
Classical | Label: Hyperion Records, Official Digital Download

Both the sonatas recorded here are recent additions to Angela Hewitt’s repertoire, and the results amply justify the patience and wisdom of her approach. A fitting end to a magnificent Beethoven sonata cycle.

Tracklist:
01. Beethoven: Piano Sonata No. 29 in B-Flat Major, Op. 106 "Hammerklavier": I. Allegro
02. Beethoven: Piano Sonata No. 29 in B-Flat Major, Op. 106 "Hammerklavier": II. Scherzo. Assai vivace – Presto
03. Beethoven: Piano Sonata No. 29 in B-Flat Major, Op. 106 "Hammerklavier": III. Adagio sostenuto, appassionato e con molto sentimento
04. Beethoven: Piano Sonata No. 29 in B-Flat Major, Op. 106 "Hammerklavier": IV. Largo – Allegro – Allegro risoluto
05. Beethoven: Piano Sonata No. 32 in C Minor, Op. 111: I. Maestoso – Allegro con brio ed appassionato
06. Beethoven: Piano Sonata No. 32 in C Minor, Op. 111: II. Arietta. Adagio molto semplice e cantabile

foobar2000 1.4.1 / Dynamic Range Meter 1.1.1
log date: 2023-07-29 01:47:23

––––––––––––––––––––––––––––––––––––––––
Analyzed: Angela Hewitt / Beethoven: Piano Sonatas Op. 106 "Hammerklavier" & 111
––––––––––––––––––––––––––––––––––––––––

DR Peak RMS Duration Track
––––––––––––––––––––––––––––––––––––––––
DR14 -0.40 dB -18.51 dB 12:15 01-Beethoven: Piano Sonata No. 29 in B-Flat Major, Op. 106 "Hammerklavier": I. Allegro
DR14 -0.40 dB -20.44 dB 3:03 02-Beethoven: Piano Sonata No. 29 in B-Flat Major, Op. 106 "Hammerklavier": II. Scherzo. Assai vivace – Presto
DR16 -2.22 dB -24.24 dB 17:31 03-Beethoven: Piano Sonata No. 29 in B-Flat Major, Op. 106 "Hammerklavier": III. Adagio sostenuto, appassionato e con molto sentimento
DR15 -0.40 dB -19.69 dB 14:15 04-Beethoven: Piano Sonata No. 29 in B-Flat Major, Op. 106 "Hammerklavier": IV. Largo – Allegro – Allegro risoluto
DR14 -0.40 dB -19.69 dB 10:09 05-Beethoven: Piano Sonata No. 32 in C Minor, Op. 111: I. Maestoso – Allegro con brio ed appassionato
DR15 -0.40 dB -21.69 dB 21:04 06-Beethoven: Piano Sonata No. 32 in C Minor, Op. 111: II. Arietta. Adagio molto semplice e cantabile
––––––––––––––––––––––––––––––––––––––––

Number of tracks: 6
Official DR value: DR15

Samplerate: 96000 Hz
Channels: 2
Bits per sample: 24
Bitrate: 2449 kbps
Codec: FLAC
================================================================================


Thanks to the Original customer!