Tags
Language
Tags

Ania Vegry, Roman Ohem, Oskar Jezior - Viva Polonia! (2022) [Official Digital Download 24/96]

Posted By: delpotro
Ania Vegry, Roman Ohem, Oskar Jezior - Viva Polonia! (2022) [Official Digital Download 24/96]

Ania Vegry, Roman Ohem, Oskar Jezior - Viva Polonia! (2022)
FLAC (tracks) 24-bit/96 kHz | Front Cover | Time - 53:37 minutes | 892 MB
Classical, Vocal | Label: Kaleidos Musikeditionen, Official Digital Download

The Viva Polonia! programme by the German-Polish musicians Ania Vegry (soprano), Roman Ohem (violin) and Oskar Jezior (piano) tells the story of the rich history of Poland. Songs and character pieces by nine Polish composers represent the arduous journey of the Polish people – from 1795 when the country vanished from maps until they regained independence in 1918. Spanning from the traditional to the modern, Viva Polonia! paints a musical portrait of Polish culture.

Tracklist:
1. Oskar Jezior – Polonaise "Pożegnanie Ojczyzny" (04:40)
2. Roman Ohem – Kujawiak in C Major (02:58)
3. Oskar Jezior – Mazurkas, Op. 63, B. 162: No. 1 in B Major (01:54)
4. Oskar Jezior – Mazurkas, Op. 63, B. 162: No. 2 in F Minor (01:52)
5. Oskar Jezior – Mazurkas, Op. 63, B. 162: No. 3 in C-Sharp Minor (01:38)
6. Ania Vegry – Drugi spiewnik, Op. 3: No. 1, Mów do mnie jeszcze (01:55)
7. Oskar Jezior – 20 Mazurkas, Op. 50, M56 (Excerpts): No. 1, Sostenuto. Molto rubato (02:04)
8. Oskar Jezior – 20 Mazurkas, Op. 50, M56 (Excerpts): No. 2, Allegramente. Poco (02:03)
9. Oskar Jezior – 20 Mazurkas, Op. 50, M56 (Excerpts): No. 3, Moderato (02:22)
10. Oskar Jezior – 20 Mazurkas, Op. 50, M56 (Excerpts): No. 4, Allegramente, risoluto (02:18)
11. Roman Ohem – Alla Cracovienne, Op. 7 (04:34)
12. Oskar Jezior – Miscellanea, Op. 16: No. 1, Légende (05:21)
13. Oskar Jezior – 9 Préludes, Op. 1, M1: No. 1, Andante ma non troppo (02:49)
14. Ania Vegry – Dyzio marzyciel (02:03)
15. Ania Vegry – Pieśni muezina szalonego, Op. 42, M44: No. 1, Allah, Allah, Akbar (02:51)
16. Ania Vegry – Pieśni muezina szalonego, Op. 42, M44: No. 2, Kaum glitzert die Sonne (03:06)
17. Ania Vegry – Pieśni muezina szalonego, Op. 42, M44: No. 3, Zur Mittagsstunde ist die Stadt weiß vor Hitze (01:58)
18. Roman Ohem – Oberek No. 1 (01:55)
19. Roman Ohem – 2 Mazurkas, Op. 19: No. 2, Dudziarz (03:39)

foobar2000 1.4.1 / Dynamic Range Meter 1.1.1
log date: 2022-01-08 22:25:23

––––––––––––––––––––––––––––––––––––––––
Analyzed: Oskar Jezior / Viva Polonia! (1-10)
Roman Ohem / Viva Polonia! (11-14)
––––––––––––––––––––––––––––––––––––––––

DR Peak RMS Duration Track
––––––––––––––––––––––––––––––––––––––––
DR13 -4.91 dB -22.64 dB 4:44 01-Polonaise "Pożegnanie Ojczyzny"
DR11 -3.32 dB -21.02 dB 1:57 03-No. 1 in B Major
DR12 -7.18 dB -26.57 dB 1:56 04-No. 2 in F Minor
DR13 -4.81 dB -22.54 dB 1:45 05-No. 3 in C-Sharp Minor
DR13 -8.36 dB -28.29 dB 2:08 07-No. 1, Sostenuto. Molto rubato
DR14 -0.78 dB -20.22 dB 2:06 08-No. 2, Allegramente. Poco
DR12 -8.20 dB -27.50 dB 2:25 09-No. 3, Moderato
DR12 -0.81 dB -20.15 dB 2:22 10-No. 4, Allegramente, risoluto
DR14 -0.41 dB -21.25 dB 5:29 12-No. 1, Légende
DR14 -2.62 dB -24.03 dB 2:56 13-No. 1, Andante ma non troppo
DR16 -1.82 dB -24.58 dB 3:00 02-Kujawiak in C Major
DR14 -0.48 dB -21.77 dB 4:40 11-Alla Cracovienne, Op. 7
DR14 -2.70 dB -21.82 dB 1:58 18-Oberek No. 1
DR15 -1.13 dB -22.32 dB 3:48 19-No. 2, Dudziarz
––––––––––––––––––––––––––––––––––––––––

Number of tracks: 14
Official DR value: DR13

Samplerate: 96000 Hz
Channels: 2
Bits per sample: 24
Bitrate: 2524 kbps
Codec: FLAC
================================================================================


Thanks to the Original customer!