Tags
Language
Tags

The Anita Kerr Quartet - A Sunday Serenade (1966/2015) [Official Digital Download 24-bit/96kHz]

Posted By: HDV
The Anita Kerr Quartet - A Sunday Serenade (1966/2015) [Official Digital Download 24-bit/96kHz]

Anita Kerr Quartet - A Sunday Serenade (1966/2015)
FLAC (tracks) 24-bit/96 kHz | Time - 30:50 minutes | 636 MB
Studio Master, Official Digital Download | Artwork: Front cover

Anita Jean Grilli, known professionally as Anita Kerr, is an American singer, arranger, composer, conductor, pianist, and music producer. She recorded and performed successfully with her vocal harmony groups in Nashville, Los Angeles, and Europe. On this release, the beautiful pop sound of the Anita Kerr Quarter ventures into the gospel field with tremendously pleasant versions of "God Put a Rainbow in the Cloud", "Just a Closer Walk With Thee", "The Wayfaring Stranger" and others. All of these deserved the heavy air play on easy listening radio stations.

Tracklist:

01 - Borrowed Angel
02 - (When I'm) Led by the Master's Great Hand
03 - Every Time I Feel the Spirit
04 - Calling
05 - Until Then
06 - The Wayfaring Stranger
07 - How Rich I Am
08 - Just a Closer Walk with Thee
09 - Do Lord
10 - His Name Is Wonderful
11 - God Put a Rainbow in the Cloud
12 - May God Be with You

Recorded at RCA Victor Studios, Nashville.

Analyzed: Anita Kerr Quartet / A Sunday Serenade
––––––––––––––––––––––––––––––––––––––––

DR Peak RMS Duration Track
––––––––––––––––––––––––––––––––––––––––
DR10 -3.60 dB -15.54 dB 2:28 01-Borrowed Angel
DR10 -2.64 dB -15.54 dB 2:28 02-(When I'm) Led by the Master's Great Hand
DR10 -2.82 dB -14.98 dB 2:03 03-Every Time I Feel the Spirit
DR10 -3.23 dB -16.62 dB 2:43 04-Calling
DR9 -3.31 dB -14.81 dB 3:26 05-Until Then
DR11 -3.00 dB -18.01 dB 2:27 06-The Wayfaring Stranger
DR10 -3.56 dB -16.48 dB 2:21 07-How Rich I Am
DR9 -2.82 dB -15.84 dB 2:12 08-Just a Closer Walk with Thee
DR11 -2.24 dB -15.40 dB 2:14 09-Do Lord
DR10 -2.17 dB -16.09 dB 2:45 10-His Name Is Wonderful
DR10 -4.16 dB -17.16 dB 2:48 11-God Put a Rainbow in the Cloud
DR10 -3.27 dB -15.61 dB 2:54 12-May God Be with You
––––––––––––––––––––––––––––––––––––––––

Number of tracks: 12
Official DR value: DR10

Samplerate: 96000 Hz
Channels: 2
Bits per sample: 24
Bitrate: 2811 kbps
Codec: FLAC
================================================================================


Thanks to the Original customer!