Please register here if you want to download anything!

If domain in your address bar is different from the list below
PLEASE LEAVE THAT SITE IMMEDIATELY
❗IT'S A DANGEROUS FAKE❗



Spicy Magazines for Men! ;-)

Paul Piché - À qui appartient l'beau temps? (1977/2013) [Official Digital Download 24/48]

Posted By: SERTiL
Paul Piché - À qui appartient l'beau temps? (1977/2013) [Official Digital Download 24/48]

Paul Piché - À qui appartient l'beau temps? (1977/2013)
FLAC (tracks) 24-bit/48 kHz | Time - 35:05 minutes | 635B
Studio Master, Official Digital Download | Artwork: Digital Booklet

Singer, songwriter from Montreal studied archeology at the University of Montreal, and in the early 1970s sang in Quebec colleges. In 1977 the keyboardist Robert Léger (of BEAU DOMMAGE) encouraged him to record his first LP, À qui appartient le beau temps, which sold more than 100,000 copies.

Tracklist:
1. Heureux d un printemps 03:45
2. Y a pas grand chose dans l ciel 02:37
3. Le Renard, le loup 03:09
4. Rejean Pesant 04:25
5. Essaye donc pas 03:41
6. La gigue a Mitchounano 03:45
7. Jean-Guy Leger 02:05
8. Mon Joe 04:19
9. Chu pas mal mal parti 04:09
10. Ou sont-elles 03:13

Personnel:
Paul Piché, vocals, accordion, guitar

Recorded at Studio Tempo and Bibliothèque Et Archives Nationales Du Québec
Mixed at Studio Tempo
Recorded by Michel Lachance
Produced by Michel Lachance, Robert Léger

foobar2000 1.3.7 / Dynamic Range Meter 1.1.1
log date: 2019-08-12 16:49:35

––––––––––––––––––––––––––––––––––––––––
Analyzed: Paul Piche / À qui appartient l'beau temps?
––––––––––––––––––––––––––––––––––––––––

DR Peak RMS Duration Track
––––––––––––––––––––––––––––––––––––––––
DR11 -0.68 dB -16.65 dB 3:45 01-Heureux d un printemps
DR12 -1.00 dB -14.41 dB 2:37 02-Y a pas grand chose dans l ciel
DR10 -3.90 dB -17.74 dB 3:09 03-Le Renard, le loup
DR11 -1.72 dB -16.88 dB 4:25 04-Rejean Pesant
DR13 -1.81 dB -16.61 dB 3:41 05-Essaye donc pas
DR13 -0.03 dB -15.20 dB 3:45 06-La gigue a Mitchounano
DR13 -2.55 dB -19.67 dB 2:05 07-Jean-Guy Leger
DR12 -0.84 dB -15.08 dB 4:19 08-Mon Joe
DR12 0.00 dB -16.78 dB 4:09 09-Chu pas mal mal parti
DR12 -2.48 dB -16.73 dB 3:13 10-Ou sont-elles
––––––––––––––––––––––––––––––––––––––––

Number of tracks: 10
Official DR value: DR12

Samplerate: 88200 Hz
Channels: 2
Bits per sample: 24
Bitrate: 2479 kbps
Codec: FLAC
================================================================================


Thanks to the Original customer.