Astor Piazzolla - Tango: Zero Hour (1986) [Japan 2010] PS3 ISO + Hi-Res FLAC

Posted By: HDAtall
Astor Piazzolla - Tango: Zero Hour (1986) [Japan 2010] PS3 ISO + Hi-Res FLAC

Ástor Piazzolla - Tango: Zero Hour (1986) [Japan 2010]
PS3 Rip | SACD ISO | DSD64 2.0 > 1-bit/2.8224 MHz | 46:18 minutes | Scans included | 1,37 GB
or FLAC (converted with foobar2000 to tracks) 24bit/96 kHz | Full Scans included | 1,01 GB

Ástor Pantaleón Piazzolla was an Argentine tango composer and bandoneon player. His oeuvre revolutionized the traditional tango into a new style termed nuevo tango, incorporating elements from jazz and classical music.

Considered by Piazzolla to be his best work, 1986's Tango Zero Hour was the culmination of a career that began in Argentina in the 1930s. Piazzolla started out auspiciously enough working with one of the brightest lights of the classic tango era, singer Carlos Gardél. After Gardél's tragic death in 1935 (by turning down an offer to tour with the singer at the age of 13, Piazzolla amazingly avoided the plane crash that killed Gardél), Piazzolla went on to perfect his bandoneón playing in various tango bands during the '40s and '50s, eventually studying with Nadia Boulanger in Paris. Like she did with so many other great talents like Aaron Copeland and Quincy Jones, Boulanger encouraged Piazzolla to find a new way of playing his county's music. Piazzolla began experimenting and soon enough perfected what is now known as "nuevo tango." Moving tango music into the more serious area of high-art composition, Piazzolla added eccentric and, at times, avant-garde touches to the traditional format; he gained the appreciation of adventurous music lovers worldwide while alienating tango purists back home. Tango Zero Hour is the fruition of his groundbreaking work and one of the most amazing albums released during the latter years of the 20th century. Joined by his Quinteto Tango Nuevo featuring violin, piano, guitar, and bass, Piazzolla offers up seven original tango gems that take in the noirish, "Zero Hour" world found between midnight and dawn. Essential for all music lovers.

Tracklist:

01. Tanguedia III
02. Milonga Del Angel
03. Concierto Para Quinteto
04. Milonga Loca
05. Michelangelo '70
06. Contrabajísimo
07. Mumuki

Remastered by Greg Calbi at Sterling Sound, NYC, NY.

foobar2000 1.5 / Dynamic Range Meter 1.1.1

––––––––––––––––––––––––––––––––––––––––
Analyzed: Astor Piazzolla / Tango: Zero Hour
––––––––––––––––––––––––––––––––––––––––

DR Peak RMS Duration Track
––––––––––––––––––––––––––––––––––––––––
DR11 -5.98 dB -20.13 dB 4:40 01-Tanguedia III
DR13 -6.68 dB -24.28 dB 6:32 02-Milonga Del Angel
DR13 -6.20 dB -22.97 dB 9:07 03-Concierto Para Quinteto
DR13 -6.24 dB -22.87 dB 3:10 04-Milonga Loca
DR13 -6.36 dB -21.34 dB 2:51 05-Michelangelo '70
DR14 -6.37 dB -24.16 dB 10:20 06-Contrabajísimo
DR15 -7.47 dB -27.68 dB 9:38 07-Mumuki
––––––––––––––––––––––––––––––––––––––––

Number of tracks: 7
Official DR value: DR13

Samplerate: 2822400 Hz / PCM Samplerate: 176400 Hz
Channels: 2
Bits per sample: 1
Bitrate: 5645 kbps
Codec: DSD64


Thanks to PS³SACD!
Uncompressed SACD ISO size > 1,85 GB

Ástor Piazzolla - La Camorra
>