Bill Charlap Trio - 'S Wonderful (1999) [Japan 2000] SACD ISO + Hi-Res FLAC

Posted By: HDAtall
Bill Charlap Trio - 'S Wonderful (1999) [Japan 2000] SACD ISO + Hi-Res FLAC

Bill Charlap Trio - 'S Wonderful (1999) [Japan 2000]
SACD Rip | SACD ISO | DSD64 2.0 > 1-bit/2.8224 MHz | 57:02 minutes | Front/Rear Covers | 1,77 GB
or FLAC(converted with foobar2000 to tracks) 24bit/88,2 kHz | Front/Rear Covers | 1,21 GB

Before the talented pianist Bill Charlap went "major" with the Blue Note label, he was discovered by Venus Records and the Japanese audience. This "debut" album of Charlap, released in 1999, was an enormous hit and became an instant classic. Deeply rooted in the tradition of jazz and with tremendous knowledge and respect for the American songbook, Charlap's piano playing is lyrical, fantastic and powerful. This album may not dazzle you with apparent "newness," but the beauty of melody, sound, and deep swing will move you and make you smile. The great New York rhythm section, bassist Peter Washington and drummer Kenny Washington, contributes with great performances as well.

Best known for his work with Gerry Mulligan and later Phil Woods during the 1990s, pianist Bill Charlap was clearly developing rapidly on his own record dates. Beginning with a crisp rendition of "Time After Time," Charlap, with a formidable rhythm section of bassist Peter Washington and drummer Kenny Washington, explores a nice mix of standards and jazz classics. His refreshing approach to "Lover" initially adds a Latin rhythm to the sprightly waltz before launching into overdrive. The less familiar material, including a jaunty take of George & Ira Gershwin's "Boy, What Love Has Done to Me" and a breathtaking solo interpretation of Jimmy Van Heusen's dreamy ballad "Only the Lonely," is equally rewarding. The sound on this studio date is so intimate that it sounds as if the listener is sitting right next to the piano. This exquisitely packaged Japanese release is very highly recommended.

Tracklist:

01. Time After Time
02. My Shinning Hour
03. The Blue Room
04. Boy, What Love Has Done To Me
05. Isfahan
06. Lover
07. Something To Live For
08. ‘S Wonderful
09. Summer Serenade
10. Only the Lonely

Produced by Tetsuo Hara & Todd Barkan. Engineered by Mile Krowiak.
Recorded on December 26, 1998 at Clinton Recording Studio in New York.
Venus Hyper Magnum Sound Direct Mix. VENUS Japan # TKGV-11.

Personnel
Bill Charlap - piano
Peter Washington - bass
Kenny Washington - drums

foobar2000 1.3.16 / Dynamic Range Meter 1.1.1

––––––––––––––––––––––––––––––––––––––––
Analyzed: BILL CHARLAP TRIO / 'S WONDERFUL
––––––––––––––––––––––––––––––––––––––––

DR Peak RMS Duration Track
––––––––––––––––––––––––––––––––––––––––
DR10 -5.80 dB -17.94 dB 6:38 01-TIME AFTER TIME
DR8 -5.98 dB -16.24 dB 6:09 02-MY SHINING HOUR
DR10 -6.05 dB -19.26 dB 4:38 03-THE BLUE ROOM
DR10 -6.02 dB -18.60 dB 4:14 04-BOY,WHAT LOVE HAS DONE TO ME
DR10 -6.04 dB -18.81 dB 6:19 05-ISFAHAN
DR8 -5.71 dB -15.05 dB 5:21 06-LOVER
DR9 -6.04 dB -17.55 dB 6:49 07-SOMETHING TO LIVE FOR
DR8 -5.83 dB -16.60 dB 5:07 08-'S WONDERFUL
DR10 -6.04 dB -18.45 dB 6:55 09-SUMMER SERENADE
DR12 -6.04 dB -22.09 dB 4:52 10-ONLY THE LONELY
––––––––––––––––––––––––––––––––––––––––

Number of tracks: 10
Official DR value: DR10

Samplerate: 2822400 Hz / PCM Samplerate: 88200 Hz
Channels: 2
Bits per sample: 1
Bitrate: 5645 kbps
Codec: DSD64


Thanks to jazzyman!
Uncompressed SACD ISO size > 2,28 GB
>