Tags
Language
Tags

Billy Idol - Whiplash Smile (1986/2017) [Official Digital Download 24/96]

Posted By: El Misha
Billy Idol - Whiplash Smile (1986/2017) [Official Digital Download 24/96]

Billy Idol - Whiplash Smile (1986/2017)
FLAC (tracks) 24-bit/96 kHz | Time - 45:45 | 984 MB
Studio Master, Official Digital Download | Artwork: Front cover

HighRes-Remaster Reissue of this 1986 album, the follow-up to his worldwide smash hit album Rebel Yell. 10 tracks including 'Don't Need A Gun', 'To Be A Lover', 'Sweet Sixteen' and more.

„Although it was ultimately an unsatisfying album, failing to live up to the promise of its fabulous single, "To Be a Lover," Whiplash Smile still burned clean with an immediately recognizable 1980s energy. Like Billy Idol himself, who affected the punk archetype but cut it with a two-dimensional, cartoonish plasticity perfect for the decade, Whiplash Smile expands on the sound of the 1983 breakthrough Rebel Yell while cleverly leaving its key elements unchanged. Idol's inherent Jim Morrison-ness was fleshed out, and Steve Stevens' already atmospheric guitar work was blended even more seamlessly with a percolating pot of shifting styles, new wave dance beats, and synth-heavy production. "Soul Standing By" and "Man for All Seasons certainly rocked – Stevens' guitar work crackles with inventiveness, even augmented as it is with multiple overdubs. But like most of Whiplash, the songs seemed to exist in a phantom zone akin to the prismatic holding cell of General Zod and his cohorts in Superman II. The plodding "Beyond Belief" and the weird, Marty Robbins-meets-Del Shannon-in-space vibe of "Sweet Sixteen" are similarly opaque. There's plenty to listen for on Whiplash Smile, and Idol's attempt to expand his palette is admirable. Unfortunately, there's nary a memorable hook here outside of the single and whatever mileage can be gained from his trademark sneer. In that sense, Whiplash Smile is similar to so much music of the decade, which got by with rayon flash and giddy video posturing but little in the way of reality. But that means that Whiplash Smile is also disappointing: Idol's best work was equally as era-defining, but it lived on to be just as memorable after the calendar flipped on the Me Decade.“ (Johnny Loftus, AMG)



Tracklist:

1 Worlds Forgotten Boy 05:43
2 To Be A Lover 03:53
3 Soul Standing By 04:36
4 Sweet Sixteen 04:16
5 Man For All Seasons 04:38
6 Don't Need A Gun 06:17
7 Beyond Belief 04:02
8 Fatal Charm 03:43
9 All Summer Single 04:36
10 One Night, One Chance 04:01

Billy Idol, vocals, guitar, bass
Steve Stevens, guitar, bass, keyboards, programming
Marcus Miller, bass
John Regan, bass
Phillip Ashley, keyboards
Harold Faltermeyer, keyboards
David Frank, keyboards
Richard Tee, keyboards
Thommy Price, drums, percussion
Jocelyn Brown, background vocals
Connie Harvey, background vocals
Janet Wright, background vocals

Recorded 1985–86 at Right Track Studios, New York City, New York
Engineered by Dave Concors, Debi Cornish, Neil Dorfsman, Moira Marquis, Bill Miranda, Steve Tjaden, Dave Wittman
Produced by Keith Forsey

Digitally remastered

foobar2000 1.4 / Dynamic Range Meter 1.1.1
log date: 2021-07-25 08:35:36

––––––––––––––––––––––––––––––––––––––––
Analyzed: Billy Idol / Whiplash Smile
––––––––––––––––––––––––––––––––––––––––

DR Peak RMS Duration Track
––––––––––––––––––––––––––––––––––––––––
DR11 0.00 dB -12.75 dB 5:43 01-Worlds Forgotten Boy
DR11 -0.20 dB -13.10 dB 3:53 02-To Be A Lover
DR10 -0.20 dB -12.12 dB 4:36 03-Soul Standing By
DR11 -2.31 dB -14.86 dB 4:16 04-Sweet Sixteen
DR11 0.00 dB -12.43 dB 4:38 05-Man For All Seasons
DR12 0.00 dB -13.62 dB 6:17 06-Don't Need A Gun
DR11 -0.78 dB -14.02 dB 4:02 07-Beyond Belief
DR11 -0.04 dB -13.84 dB 3:43 08-Fatal Charm
DR10 -0.81 dB -13.16 dB 4:36 09-All Summer Single
DR11 -1.93 dB -15.28 dB 4:01 10-One Night, One Chance
––––––––––––––––––––––––––––––––––––––––

Number of tracks: 10
Official DR value: DR11

Samplerate: 96000 Hz
Channels: 2
Bits per sample: 24
Bitrate: 2915 kbps
Codec: FLAC
================================================================================



Thanks to the Original customer!