Tags
Language
Tags

Bob Kindred Quartet - Blue Moon (2004) [Japan 2016] SACD ISO + DSD64 + Hi-Res FLAC

Posted By: HDAtall
Bob Kindred Quartet - Blue Moon (2004) [Japan 2016] SACD ISO + DSD64 + Hi-Res FLAC

Bob Kindred Quartet - Blue Moon (2004) [Japan 2016]
SACD Rip | SACD ISO | DSD64 2.0 > 1-bit/2.8224 MHz | 70:05 minutes | Front/Rear Covers | 2,28 GB
or DSD64 2.0 (from SACD-ISO to Tracks.dsf) > 1-bit/2.8224 MHz | Front/Rear Covers | 2,01 GB
or FLAC (carefully converted & encoded to tracks) 24bit/48 kHz | Front/Rear Covers | 833 MB

Bob Kindred is a great tenor sax player who is consistently underrated and underexposed. Aside from some CDs released by a small audiophile label Mapleshade, it is not easy to find his leader albums in the market. Venus Records wanted to correct this situation and signed Kindred a few years ago and released this label debut album, Blue Moon.


With superb supporting musicians, Kindred plays a program of mostly standards with his distinctive, brawny and sensual tone and a sly sense of humor. This swinging and romantic collection is a must-have SACD for fans of Kindred and jazz saxophones!

Tracklist:

01. Do Nothin' Till You Hear From Me
02. In A Sentimental Mood
03. Crazy He Calls Me
04. Moon And Sand
05. Body And Soul
06. The Things We Did Last Summer
07. If You Could See Me Now
08. Time On My Hands
09. Blue Moon
10. Warm Valley
11. With The Wind And Rain In Your Hair

Personnel
Bob Kindred - tenor sax
John di Martino - piano
George Mraz - bass
Ben Riley - drums

Produced, Mixed & Mastered by Tetsuo Hara. Engineered by David Darlington.
Recorded on February 26-27, 2004 at Avatar Studio in New York.
Venus Hyper Magnum Sound Direct Mix. VENUS Japan # VHGD-124.

foobar2000 1.6.2 / Dynamic Range Meter 1.1.1

––––––––––––––––––––––––––––––––––––––––
Analyzed: BOB KINDRED QUARTET / Blue Moon
––––––––––––––––––––––––––––––––––––––––

DR Peak RMS Duration Track
––––––––––––––––––––––––––––––––––––––––
DR6 -4.92 dB -13.08 dB 5:55 01-Do Nothin' Till You Hear From Me
DR7 -4.95 dB -14.63 dB 5:14 02-In A Sentimental Mood
DR7 -4.94 dB -14.89 dB 6:01 03-Crazy He Calls Me
DR7 -4.91 dB -13.49 dB 7:07 04-Moon And Sand
DR7 -4.80 dB -14.52 dB 6:12 05-Body And Soul
DR9 -4.96 dB -16.38 dB 6:18 06-The Things We Did Last Summer
DR7 -4.87 dB -13.12 dB 8:17 07-If You Could See Me Now
DR8 -4.91 dB -14.55 dB 6:14 08-Time On My Hands
DR6 -4.88 dB -13.02 dB 7:26 09-Blue Moon
DR7 -4.89 dB -14.06 dB 5:29 10-Warm Valley
DR6 -4.90 dB -12.71 dB 5:49 11-With The Wind And Rain In Your Hair
––––––––––––––––––––––––––––––––––––––––

Number of tracks: 11
Official DR value: DR7

Samplerate: 2822400 Hz / PCM Samplerate: 176400 Hz
Channels: 2
Bits per sample: 1
Bitrate: 5645 kbps
Codec: DSD64


Thanks to jazzyman!
Uncompressed SACD ISO size > 2,83 GB
>