Bruno Walter - Bruno Walter conducts Brahms (Japanese Box Set 2020) SACD ISO + Hi-Res FLAC

Posted By: HDAtall
Bruno Walter - Bruno Walter conducts Brahms (Japanese Box Set 2020) SACD ISO + Hi-Res FLAC

Bruno Walter, Columbia Symphony Orchestra - Bruno Walter Conducts Brahms: The Four Symphonies (2020)
SACD Rip | 5x SACD ISO | DSD64 2.0 > 1-bit/2.8224 MHz | 351:56 min | Scans included | 7,77 GB
or FLAC Stereo (converted with foobar2000 to tracks) 24bit/96 kHz | Scans included | 6,71 GB

Bruno Walter was a German-born conductor, pianist and composer. Bruno Walter helped shape the very essence of interpretive style among conductors. Drawn from the worldwide holdings of Sony Classical Music and DSD re-mastered in 2019, these smart, desirable and collectible Japanese pressed import multi-disc editions, replete with legendary artists, offer many of the finest, most sought-after recordings in the classical discography.

Tracklist

DISC 1 (SACD):
01. Symphony No. 1 in C Minor, Op. 68 I. Un poco sostenuto - Allegro
02. Symphony No. 1 in C Minor, Op. 68 II. Andante sostenuto
03. Symphony No. 1 in C Minor, Op. 68 III. Un poco Allegretto e grazioso
04. Symphony No. 1 in C Minor, Op. 68 IV. Adagio - Piu Andante - Allegro non troppo, ma con brio - Piu Allegro
05. Rhapsody for Contralto, Male Chorus and Orchestra, Op. 53
06. Schicksalslied, Op. 54

DISC 2 (SACD):
01. Symphony No. 2 in D Major, Op. 73 I. Allegro non troppo
02. Symphony No. 2 in D Major, Op. 73 II. Adagio non troppo - L'istesso tempo, ma grazioso
03. Symphony No. 2 in D Major, Op. 73 III. Allegretto grazioso (Quasi andantino) - Presto ma non assai - Tempo I
04. Symphony No. 2 in D Major, Op. 73 IV. Allegro con spirito
05. Academic Festival Overture, Op. 80

DISC 3 (SACD):
01. Symphony No. 3 In F Major, Op. 90 I. Allegro con brio
02. Symphony No. 3 In F Major, Op. 90 II. Andante
03. Symphony No. 3 In F Major, Op. 90 III. Poco Allegretto
04. Symphony No. 3 In F Major, Op. 90 IV. Allegro
05. Variations on a Theme by Joseph Haydn, Op. 56a

DISC 4 (SACD):
01. Symphony No. 4 in E Minor, Op. 98 I. Allegro non troppo
02. Symphony No. 4 in E Minor, Op. 98 II. Andante moderato
03. Symphony No. 4 in E Minor, Op. 98 III. Allegro giocoso - Poco meno presto - Tempo I
04. Symphony No. 4 in E Minor, Op. 98 IV. Allegro energico e passionato - Piu Allegro
05. Tragic Overture, Op. 81

DISC 5 (SACD):
01. Concerto in A Minor for Violin, Cello and Orchestra in A Minor, Op. 102 "Double Concerto" I. Allegro
02. Concerto in A Minor for Violin, Cello and Orchestra in A Minor, Op. 102 "Double Concerto" II. Andante
03. Concerto in A Minor for Violin, Cello and Orchestra in A Minor, Op. 102 "Double Concerto" III. Vivace non troppo
04. Concerto for Piano and Orchestra in A Minor, Op. 54 I. Allegro affettuoso
05. Concerto for Piano and Orchestra in A Minor, Op. 54 II. Intermezzo - Andantino grazioso - attacca
06. Concerto for Piano and Orchestra in A Minor, Op. 54 III. Allegro vivace

DISC 6 (CD / MONO):
01. Brahms: Symphony No.2 Rehearsing: I. Allegro Non Troppo (with New York Philharmonic)
02. Brahms: Symphony No.3 Rehearsing: I. Allegro Con Brio (with New York Philharmonic)
03. Bruno Walter On Conducting
04. Bruno Walter: Selbstportrait - Kinderjahre In Berlin
05. Bruno Walter: Selbstportrait - Begeisterung Fur Wagner
06. Bruno Walter: Selbstportrait - Anfange Als Dirigent Ynd Treffen Auf Mahler
07. Bruno Walter: Selbstportrait - Mahler Und Der Glaube
08. Bruno Walter: Selbstportrait - Die Zeit In Hamburg
09. Bruno Walter: Selbstportrait - Breslau, Riga, Berlin
10. Bruno Walter: Selbstportrait - Wien
11. Bruno Walter: Selbstportrait - Mahlers Tod
12. Bruno Walter: Selbstportrait - Walter Verlasst Wien
13. Bruno Walter: Selbstportrait - Amerika

Recorded in 1959-60 (SACD) & 1953-61 (CD)
This Japanese DSD reissue project by Sony Music Labels is co-organized with Bruno Walter: The Complete Columbia Album Collection.
Original Sources used for this DSD edition - Three Track Analog tapes.

foobar2000 1.5.2 / Dynamic Range Meter 1.1.1

––––––––––––––––––––––––––––––––––––––––
Analyzed: Bruno Walter / Bruno Walter conducts Brahms (1)
––––––––––––––––––––––––––––––––––––––––

DR Peak RMS Duration Track
––––––––––––––––––––––––––––––––––––––––
DR13 -5.75 dB -23.41 dB 14:07 01-Symphony No. 1 in C Minor, Op. 68 I. Un poco sostenuto - Allegro
DR13 -6.44 dB -24.58 dB 8:30 02-Symphony No. 1 in C Minor, Op. 68 II. Andante sostenuto
DR13 -6.32 dB -23.94 dB 4:48 03-Symphony No. 1 in C Minor, Op. 68 III. Un poco Allegretto e grazioso
DR13 -5.39 dB -23.96 dB 16:48 04-Symphony No. 1 in C Minor, Op. 68 IV. Adagio - Piu Andante - Allegro non troppo, ma con brio - Piu Allegro
DR14 -6.01 dB -24.43 dB 12:26 05-Rhapsody for Contralto, Male Chorus and Orchestra, Op. 53
DR15 -6.29 dB -27.24 dB 15:12 06-Schicksalslied, Op. 54
––––––––––––––––––––––––––––––––––––––––

Number of tracks: 6
Official DR value: DR13

Samplerate: 2822400 Hz / PCM Samplerate: 176400 Hz
Channels: 2
Bits per sample: 1
Bitrate: 5645 kbps
Codec: DSD64
================================================================================

––––––––––––––––––––––––––––––––––––––––
Analyzed: Bruno Walter / Bruno Walter conducts Brahms (2)
––––––––––––––––––––––––––––––––––––––––

DR Peak RMS Duration Track
––––––––––––––––––––––––––––––––––––––––
DR13 -5.85 dB -24.72 dB 15:13 01-Symphony No. 2 in D Major, Op. 73 I. Allegro non troppo
DR13 -6.03 dB -24.42 dB 10:40 02-Symphony No. 2 in D Major, Op. 73 II. Adagio non troppo - L'istesso tempo, ma grazioso
DR15 -6.23 dB -27.20 dB 5:36 03-Symphony No. 2 in D Major, Op. 73 III. Allegretto grazioso (Quasi andantino) - Presto ma non assai - Tempo I
DR13 -5.73 dB -23.49 dB 9:37 04-Symphony No. 2 in D Major, Op. 73 IV. Allegro con spirito
DR12 -6.00 dB -22.71 dB 9:55 05-Academic Festival Overture, Op. 80
––––––––––––––––––––––––––––––––––––––––

Number of tracks: 5
Official DR value: DR13

Samplerate: 2822400 Hz / PCM Samplerate: 176400 Hz
Channels: 2
Bits per sample: 1
Bitrate: 5645 kbps
Codec: DSD64
================================================================================

––––––––––––––––––––––––––––––––––––––––
Analyzed: Bruno Walter / Bruno Walter conducts Brahms (3)
––––––––––––––––––––––––––––––––––––––––

DR Peak RMS Duration Track
––––––––––––––––––––––––––––––––––––––––
DR13 -5.60 dB -23.09 dB 10:05 01-Symphony No. 3 In F Major, Op. 90 I. Allegro con brio
DR13 -6.98 dB -25.49 dB 8:40 02-Symphony No. 3 In F Major, Op. 90 II. Andante
DR14 -6.15 dB -25.43 dB 6:16 03-Symphony No. 3 In F Major, Op. 90 III. Poco Allegretto
DR13 -6.51 dB -24.16 dB 8:12 04-Symphony No. 3 In F Major, Op. 90 IV. Allegro
DR13 -6.07 dB -24.41 dB 18:32 05-Variations on a Theme by Joseph Haydn, Op. 56a
––––––––––––––––––––––––––––––––––––––––

Number of tracks: 5
Official DR value: DR13

Samplerate: 2822400 Hz / PCM Samplerate: 176400 Hz
Channels: 2
Bits per sample: 1
Bitrate: 5645 kbps
Codec: DSD64
================================================================================

––––––––––––––––––––––––––––––––––––––––
Analyzed: Bruno Walter / Bruno Walter conducts Brahms (4)
––––––––––––––––––––––––––––––––––––––––

DR Peak RMS Duration Track
––––––––––––––––––––––––––––––––––––––––
DR14 -6.03 dB -24.89 dB 13:01 01-Symphony No. 4 in E Minor, Op. 98 I. Allegro non troppo
DR13 -7.14 dB -26.58 dB 11:51 02-Symphony No. 4 in E Minor, Op. 98 II. Andante moderato
DR12 -5.50 dB -22.29 dB 6:28 03-Symphony No. 4 in E Minor, Op. 98 III. Allegro giocoso - Poco meno presto - Tempo I
DR13 -5.72 dB -24.13 dB 11:18 04-Symphony No. 4 in E Minor, Op. 98 IV. Allegro energico e passionato - Piu Allegro
DR13 -6.00 dB -23.60 dB 13:21 05-Tragic Overture, Op. 81
––––––––––––––––––––––––––––––––––––––––

Number of tracks: 5
Official DR value: DR13

Samplerate: 2822400 Hz / PCM Samplerate: 176400 Hz
Channels: 2
Bits per sample: 1
Bitrate: 5645 kbps
Codec: DSD64
================================================================================

––––––––––––––––––––––––––––––––––––––––
Analyzed: Bruno Walter / Bruno Walter conducts Brahms (5)
––––––––––––––––––––––––––––––––––––––––

DR Peak RMS Duration Track
––––––––––––––––––––––––––––––––––––––––
DR13 -6.27 dB -24.89 dB 16:28 01-Concerto in A Minor for Violin, Cello and Orchestra in A Minor, Op. 102 "Double Concerto" I. Allegro
DR13 -12.51 dB -29.84 dB 7:57 02-Concerto in A Minor for Violin, Cello and Orchestra in A Minor, Op. 102 "Double Concerto" II. Andante
DR14 -5.65 dB -24.48 dB 8:32 03-Concerto in A Minor for Violin, Cello and Orchestra in A Minor, Op. 102 "Double Concerto" III. Vivace non troppo
DR15 -5.95 dB -26.65 dB 14:27 04-Concerto for Piano and Orchestra in A Minor, Op. 54 I. Allegro affettuoso
DR13 -12.98 dB -29.71 dB 5:25 05-Concerto for Piano and Orchestra in A Minor, Op. 54 II. Intermezzo - Andantino grazioso - attacca
DR15 -5.60 dB -25.02 dB 11:02 06-Concerto for Piano and Orchestra in A Minor, Op. 54 III. Allegro vivace
––––––––––––––––––––––––––––––––––––––––

Number of tracks: 6
Official DR value: DR14

Samplerate: 2822400 Hz / PCM Samplerate: 176400 Hz
Channels: 2
Bits per sample: 1
Bitrate: 5645 kbps
Codec: DSD64


Thanks to the Original ripper!
Uncompressed SACD ISO size > 2,88 + 2,05 + 2,07 + 2,24 + 2,56 GB
>