Tags
Language
Tags

Capella Cracoviensis & Jan Tomasz Adamus - Stanislaw Moniuszko: Halka (2021) [Official Digital Download 24/96]

Posted By: delpotro
Capella Cracoviensis & Jan Tomasz Adamus - Stanislaw Moniuszko: Halka (2021) [Official Digital Download 24/96]

Capella Cracoviensis & Jan Tomasz Adamus - Stanislaw Moniuszko: Halka (2021)
FLAC (tracks) 24-bit/96 kHz | Front Cover & Digital Booklet | Time - 80:47 minutes | 1,35 GB
Classical, Opera | Label: deutsche harmonia mundi, Official Digital Download

To celebrate the bicentenary of the birth of Stanisław Moniuszko (1819-1872), organist, conductor and composer considered in Poland as the father of Polish opera, we pay tribute to him by inviting you to discover the 1848 version of the opera Halka, in its Vilnius version of 1848, during a concert performed by Capella Cracoviensis, soloists, choir and orchestra on historical instruments conducted by Jan Tomasz Adamus.

“Halka” is a major work in the Polish opera repertoire. Composed by Moniuszko on a booklet written by Włodzimierz Wolski, a young Warsaw poet with progressive social opinions, was first presented in Vilnius in 1848 in two acts, and then revised more extensively in 1858 in Warsaw in four acts. A success that has never been denied since then!

“Halka”, 1848 is presented in Brussels by the Polish Institute in collaboration with the Midis-Minimes festival (info) as an exceptional event for the closing of this typical Brussels summer festival.

Tracklist:
Disc 1 (41:41)
1. Halka : Overture (07:26)
2. Halka : Niechaj zyje para mloda (03:50)
3. Halka : Poblogoslaw, ojcze panie (07:16)
4. Halka : Czego ta dziewka tutaj przybywa (Recitative) (00:35)
5. Halka : Jak mój wianuszek zwiadl potargany (02:04)
6. Halka : Mój Jasko! (Duet) (07:52)
7. Halka : Ah, widzisz Jontku (03:02)
8. Halka : I ty mu wierzysz (Aria) (04:46)
9. Halka : Puszczajcie mnie (Finale) (04:50)

Disc 2 (38:58)
1. Halka : Antrakt (02:38)
2. Halka : Po nieszporze, przy niedzieli (04:02)
3. Halka : Lecz cóz to (06:14)
4. Halka : Tak to z panami (02:01)
5. Halka : Dobrze zescie tu gromada (09:18)
6. Halka : Oj wesolo (Duet) (02:41)
7. Halka : Ojcze z niebios Boze, Panie! (01:27)
8. Halka : Ha! Dzieciatko nam umiera (09:33)
9. Halka : Juz za pózno (Finale) (01:04)

foobar2000 1.4.1 / Dynamic Range Meter 1.1.1
log date: 2021-10-22 13:08:02

––––––––––––––––––––––––––––––––––––––––
Analyzed: Capella Cracoviensis / Stanislaw Moniuszko: Halka (1-3)
Michalina Bienkiewicz / Stanislaw Moniuszko: Halka (4)
Natalia Rubis / Stanislaw Moniuszko: Halka (5-8)
Przemyslaw Borys / Stanislaw Moniuszko: Halka (9)
––––––––––––––––––––––––––––––––––––––––

DR Peak RMS Duration Track
––––––––––––––––––––––––––––––––––––––––
DR12 -2.32 dB -20.51 dB 7:27 01-Overture
DR13 -0.74 dB -17.61 dB 3:50 02-Act 1: Niechaj zyje para mloda
DR13 -7.45 dB -27.22 dB 0:35 04-Act 1: Czego ta dziewka tutaj przybywa (Recitative)
DR14 -2.92 dB -23.17 dB 7:16 03-Act 1: Poblogoslaw, ojcze panie
DR11 -7.35 dB -23.53 dB 2:04 05-Act 1: Jak mój wianuszek zwiadl potargany
DR13 -1.43 dB -19.29 dB 7:52 06-Act 1: Mój Jasko! (Duet)
DR14 -4.66 dB -23.34 dB 3:02 07-Act 1: Ah, widzisz Jontku
DR12 -1.16 dB -17.27 dB 4:50 09-Act 1: Puszczajcie mnie (Finale)
DR13 -3.25 dB -21.62 dB 4:46 08-Act 1: I ty mu wierzysz (Aria)
––––––––––––––––––––––––––––––––––––––––

Number of tracks: 9
Official DR value: DR13

Samplerate: 96000 Hz
Channels: 2
Bits per sample: 24
Bitrate: 2350 kbps
Codec: FLAC
================================================================================

foobar2000 1.4.1 / Dynamic Range Meter 1.1.1
log date: 2021-10-22 13:08:26

––––––––––––––––––––––––––––––––––––––––
Analyzed: Capella Cracoviensis / Stanislaw Moniuszko: Halka (1-3)
Michalina Bienkiewicz / Stanislaw Moniuszko: Halka (4)
Natalia Rubis / Stanislaw Moniuszko: Halka (5-7)
Przemyslaw Borys / Stanislaw Moniuszko: Halka (8-9)
––––––––––––––––––––––––––––––––––––––––

DR Peak RMS Duration Track
––––––––––––––––––––––––––––––––––––––––
DR12 -4.04 dB -23.03 dB 2:39 01-Antrakt
DR13 -0.79 dB -18.72 dB 4:03 02-Act 2: Po nieszporze, przy niedzieli
DR11 -13.24 dB -29.45 dB 1:28 07-Act 2: Ojcze z niebios Boze, Panie!
DR13 -0.90 dB -19.97 dB 9:18 05-Act 2: Dobrze zescie tu gromada
DR11 -0.85 dB -15.17 dB 2:02 04-Act 2: Tak to z panami
DR13 -2.27 dB -20.36 dB 2:42 06-Act 2: Oj wesolo (Duet)
DR14 -0.85 dB -20.78 dB 9:33 08-Act 2: Ha! Dzieciatko nam umiera
DR15 -1.40 dB -21.75 dB 6:14 03-Act 2: Lecz cóz to
DR11 -0.85 dB -15.55 dB 1:05 09-Act 2: Juz za pózno (Finale)
––––––––––––––––––––––––––––––––––––––––

Number of tracks: 9
Official DR value: DR13

Samplerate: 96000 Hz
Channels: 2
Bits per sample: 24
Bitrate: 2523 kbps
Codec: FLAC
================================================================================


Thanks to the Original customer!