Please register here if you want to download anything!

If domain in your address bar is different from the list below
PLEASE LEAVE THAT SITE IMMEDIATELY
❗IT'S A DANGEROUS FAKE❗



Spicy Magazines for Men! ;-)

Carole King - Tapestry (1971) [Reissue 2017] PS3 ISO + Hi-Res FLAC

Posted By: HDAtall
Carole King - Tapestry (1971) [Reissue 2017] PS3 ISO + Hi-Res FLAC

Carole King - Tapestry (1971) [Reissue 2017]
PS3 Rip | SACD ISO | DST64 2.0 & 5.1 > 1-bit/2.8224 MHz | 50:44 minutes | Full Scans included | 3,51 GB
or FLAC 2.0 Stereo (converted with foobar2000 to tracks) 24bit/88,2 kHz | 50:57 min | Scans | 1,07 GB

Carole King brought the fledgling singer/songwriter phenomenon to the masses with Tapestry, one of the most successful albums in pop music history. A remarkably expressive and intimate record, it's a work of consummate craftsmanship. Always a superior pop composer, King reaches even greater heights as a performer; new songs like the hits "It's Too Late" and "I Feel the Earth Move" rank solidly with past glories, while songs like "Will You Still Love Me Tomorrow," and "(You Make Me Feel Like) A Natural Woman" take on added resonance when delivered in her own warm, compelling voice. With its reliance on pianos and gentle drumming, Tapestry is a light and airy work on its surface, occasionally skirting the boundaries of jazz, but it's also an intensely emotional record, the songs confessional and direct; in its time it connected with listeners like few records before it, and it remains an illuminating experience decades later.

Tracklist:

01. I Feel The Earth Move
02. So Far Away
03. It's Too Late
04. Home Again
05. Beautiful
06. Way Over Yonder
07. You've Got A Friend
08. Where You Lead
09. Will You Love Me Tomorrow?
10. Smackwater Jack
11. Tapestry
12. (You Make Me Feel Like) A Natural Woman
13. Out In The Cold [Bonus Track]
14. Smackwater Jack (Live) [Bonus Track]

foobar2000 1.3.15 / Dynamic Range Meter 1.1.1
log date: 2017-06-19 17:18:48

––––––––––––––––––––––––––––––––––––––––
Analyzed: CAROLE KING / TAPESTRY
––––––––––––––––––––––––––––––––––––––––

DR Peak RMS Duration Track
––––––––––––––––––––––––––––––––––––––––
DR11 -4.78 dB -20.55 dB 3:00 01-I Feel The Earth Move
DR13 -4.93 dB -22.17 dB 3:55 02-So Far Away
DR12 -4.73 dB -20.73 dB 3:53 03-It's Too Late
DR12 -4.76 dB -21.10 dB 2:28 04-Home Again
DR11 -4.76 dB -20.18 dB 3:07 05-Beautiful
DR11 -4.75 dB -20.38 dB 4:44 06-Way Over Yonder
DR11 -5.61 dB -20.44 dB 5:09 07-You've Got A Friend
DR11 -4.76 dB -19.43 dB 3:19 08-Where You Lead
DR12 -4.92 dB -21.49 dB 4:12 09-Will You Love Me Tomorrow?
DR11 -4.74 dB -20.16 dB 3:42 10-Smackwater Jack
DR12 -5.28 dB -21.65 dB 3:14 11-Tapestry
DR12 -4.77 dB -22.03 dB 3:59 12-(You Make Me Feel Like) A Natural Woman
DR12 -4.83 dB -20.92 dB 2:45 13-Out In The Cold
DR12 -4.79 dB -21.91 dB 3:18 14-Smackwater Jack (Live)
––––––––––––––––––––––––––––––––––––––––

Number of tracks: 14
Official DR value: DR12

Samplerate: 2822400 Hz / PCM Samplerate: 88200 Hz
Channels: 6
Bits per sample: 1
Bitrate: 16934 kbps
Codec: DST64
================================================================================

––––––––––––––––––––––––––––––––––––––––
Analyzed: CAROLE KING / TAPESTRY
––––––––––––––––––––––––––––––––––––––––

DR Peak RMS Duration Track
––––––––––––––––––––––––––––––––––––––––
DR10 -6.01 dB -18.02 dB 2:59 01-I Feel The Earth Move
DR13 -5.98 dB -22.28 dB 3:56 02-So Far Away
DR12 -6.00 dB -20.66 dB 3:54 03-It's Too Late
DR11 -6.00 dB -19.44 dB 2:29 04-Home Again
DR12 -6.02 dB -20.28 dB 3:08 05-Beautiful
DR11 -6.01 dB -20.31 dB 4:45 06-Way Over Yonder
DR11 -6.01 dB -19.37 dB 5:10 07-You've Got A Friend
DR11 -6.01 dB -19.67 dB 3:20 08-Where You Lead
DR11 -6.01 dB -20.40 dB 4:13 09-Will You Love Me Tomorrow?
DR11 -5.99 dB -18.46 dB 3:42 10-Smackwater Jack
DR11 -6.73 dB -21.67 dB 3:15 11-Tapestry
DR12 -6.01 dB -22.40 dB 4:00 12-(You Make Me Feel Like) A Natural Woman
DR11 -5.99 dB -19.23 dB 2:44 13-Out In The Cold
DR14 -7.11 dB -24.50 dB 3:22 14-Smackwater Jack (Live)
––––––––––––––––––––––––––––––––––––––––

Number of tracks: 14
Official DR value: DR12

Samplerate: 2822400 Hz / PCM Samplerate: 88200 Hz
Channels: 2
Bits per sample: 1
Bitrate: 5645 kbps
Codec: DST64


Thanks to KingCrim!
Uncompressed SACD ISO size > 3,32 GB
>