Tags
Language
Tags

Charlotte Saluste-Bridoux - Ostinata: Works for Solo Violin (2022) [Official Digital Download 24/96]

Posted By: delpotro
Charlotte Saluste-Bridoux - Ostinata: Works for Solo Violin (2022) [Official Digital Download 24/96]

Charlotte Saluste-Bridoux - Ostinata: Works for Solo Violin (2022)
FLAC (tracks) 24-bit/96 kHz | Front Cover | Time - 70:36 minutes | 1,3 GB
Classical | Label: Champs Hill Records, Official Digital Download

Charlotte Saluste-Bridoux explores some of the most technically challenging and virtuoso solo violin repertoire for her stunning debut recording. her programme embraces a mix of the rational and intuitive, of head and heart, in five diverse solo sonatas, each strikingly different in style and substance.

Saluste-Bridoux comments: “This album comprises a collection of violin works that have been at the centre of my musical life for many years. Biber rivals Bartók with his obsessive tendencies. Ysaÿe is included for his often misunderstood elegance, Bacewicz for her devilish energy. And Prokofiev’s Solo Sonata was picked for being an underrated little gem of the solo violin repertoire. Finally, in his Sonata for solo violin, Bartók writes in a musical language that at once pays tribute to J.S. Bach and his own deep affinity for the folk tradition. I am drawn to this world of musical connections: the counterpoint and complex structures of Bach’s solo writing meet the rhythms and sense of movement found in Magyar folk music. It is one of those pieces that lives with you, possesses you.”

Saluste-Bridoux was a prize-winner at the 2021 Young Classical Artists Trust International Auditions, in partnership with Concert Artists Guild (New York). Other recent career highlights include appearances at Wigmore Hall, a BBC Prom with the 12 Ensemble, and a performance of the Franck Piano Quintet at the Gstaadt Festival with Alina Ibragimova, Lawrence Power, Sol Gabetta and Bertrand Chamayou. Charlotte plays a wide variety of repertoire, including rarely heard solo concertos by Panufnik, Vasks and Joachim, the last of which she has performed, alongside Bernstein’s Serenade, with the Concerto Budapest Orchestra conducted by András Keller.

Tracklist:
1. Passacaglia in G Minor for Solo Violin, "The Guardian Angel" (08:16)
2. Sonata for Solo Violin, BB 124, Sz. 117: I. Tempo di ciaccona (09:58)
3. Sonata for Solo Violin, BB 124, Sz. 117: II. Fuga. Risoluto, non troppo vivo (04:48)
4. Sonata for Solo Violin, BB 124, Sz. 117: III. Melodia. Adagio (06:46)
5. Sonata for Solo Violin, BB 124, Sz. 117: IV. Presto (05:19)
6. Sonata in D Major for Solo Violin, Op. 115: I. Moderato (05:15)
7. Sonata in D Major for Solo Violin, Op. 115: II. Andante dolce. Tema con variazioni (03:21)
8. Sonata in D Major for Solo Violin, Op. 115: III. Con brio - Allegro precipitato (04:06)
9. Sonata No. 2 for Solo Violin: I. Adagio (00:47)
10. Sonata No. 2 for Solo Violin: II. Allegro (04:47)
11. Sonata No. 2 for Solo Violin: III. Adagio (02:38)
12. Sonata No. 2 for Solo Violin: IV. Presto (02:02)
13. Sonata No. 4 in E Minor, Op. 27: I. Allemande. Lento maestoso (05:15)
14. Sonata No. 4 in E Minor, Op. 27: II. Sarabande. Quasi lento (03:48)
15. Sonata No. 4 in E Minor, Op. 27: III. Finale. Presto ma non troppo (03:22)

foobar2000 1.4.1 / Dynamic Range Meter 1.1.1
log date: 2022-05-06 13:25:42

––––––––––––––––––––––––––––––––––––––––
Analyzed: Charlotte Saluste-Bridoux / Ostinata: Works for Solo Violin
––––––––––––––––––––––––––––––––––––––––

DR Peak RMS Duration Track
––––––––––––––––––––––––––––––––––––––––
DR14 -1.78 dB -20.46 dB 8:17 01-Passacaglia in G Minor for Solo Violin, "The Guardian Angel"
DR15 -0.36 dB -20.07 dB 9:59 02-Sonata for Solo Violin, BB 124, Sz. 117: I. Tempo di ciaccona
DR13 -0.35 dB -16.58 dB 4:49 03-Sonata for Solo Violin, BB 124, Sz. 117: II. Fuga. Risoluto, non troppo vivo
DR13 -11.35 dB -30.22 dB 6:46 04-Sonata for Solo Violin, BB 124, Sz. 117: III. Melodia. Adagio
DR14 -0.36 dB -19.39 dB 5:20 05-Sonata for Solo Violin, BB 124, Sz. 117: IV. Presto
DR14 -0.36 dB -18.51 dB 5:15 06-Sonata in D Major for Solo Violin, Op. 115: I. Moderato
DR13 -4.83 dB -23.34 dB 3:22 07-Sonata in D Major for Solo Violin, Op. 115: II. Andante dolce. Tema con variazioni
DR15 -0.36 dB -20.17 dB 4:07 08-Sonata in D Major for Solo Violin, Op. 115: III. Con brio - Allegro precipitato
DR11 -6.21 dB -23.31 dB 0:47 09-Sonata No. 2 for Solo Violin: I. Adagio
DR15 -0.36 dB -20.42 dB 4:48 10-Sonata No. 2 for Solo Violin: II. Allegro
DR12 -8.52 dB -26.41 dB 2:39 11-Sonata No. 2 for Solo Violin: III. Adagio
DR15 -0.36 dB -19.91 dB 2:02 12-Sonata No. 2 for Solo Violin: IV. Presto
DR14 -2.03 dB -20.41 dB 5:15 13-Sonata No. 4 in E Minor, Op. 27: I. Allemande. Lento maestoso
DR14 -5.09 dB -26.58 dB 3:48 14-Sonata No. 4 in E Minor, Op. 27: II. Sarabande. Quasi lento
DR13 -0.98 dB -19.38 dB 3:22 15-Sonata No. 4 in E Minor, Op. 27: III. Finale. Presto ma non troppo
––––––––––––––––––––––––––––––––––––––––

Number of tracks: 15
Official DR value: DR14

Samplerate: 96000 Hz
Channels: 2
Bits per sample: 24
Bitrate: 2752 kbps
Codec: FLAC
================================================================================


Thanks to the Original customer!