Tags
Language
Tags
March 2024
Su Mo Tu We Th Fr Sa
25 26 27 28 29 1 2
3 4 5 6 7 8 9
10 11 12 13 14 15 16
17 18 19 20 21 22 23
24 25 26 27 28 29 30
31 1 2 3 4 5 6
Attention❗ To save your time, in order to download anything on this site, you must be registered 👉 HERE. If you do not have a registration yet, it is better to do it right away. ✌

( • )( • ) ( ͡⚆ ͜ʖ ͡⚆ ) (‿ˠ‿)
SpicyMags.xyz

Choir of Clare College, Cambridge, Dmitri Ensemble, Carolyn Sampson, Graham Ross - Ice Land: The Eternal Music (2022) [24/96]

Posted By: delpotro
Choir of Clare College, Cambridge, Dmitri Ensemble, Carolyn Sampson, Graham Ross - Ice Land: The Eternal Music (2022) [24/96]

Choir of Clare College, Cambridge, The Dmitri Ensemble, Carolyn Sampson & Graham Ross - Ice Land: The Eternal Music (2022)
FLAC (tracks) 24-bit/96 kHz | Front Cover | Time - 79:49 minutes | 1,27 GB
Classical, Sacred, Choral | Label: harmonia mundi, Official Digital Download

Icelandic music of the last half century is the focus of this recording by the Choir of Clare College, Cambridge, led by its conductor, Graham Ross. Born from his close collaboration with the native composers of the “Land of Fire and Ice,” this programme sets out to explore and highlight their hypnotic soundworld, instinctively leaning towards contemplation. A prime example is the touchingly beautiful Requiem by Sigurður Sævarsson, which here receives its world premiere recording.

Tracklist:
1. Choir of Clare College, Cambridge, Graham Ross, Carolyn Sampson & Dmitri Ensemble – Ad genua (10:41)
2. Choir of Clare College, Cambridge & Graham Ross – Heyr, himna smiður (03:04)
3. Choir of Clare College, Cambridge & Graham Ross – Kvöldvers (01:50)
4. Choir of Clare College, Cambridge & Graham Ross – Ave Maria (03:47)
5. Choir of Clare College, Cambridge & Graham Ross – Heyr þú oss himnum á (04:22)
6. Choir of Clare College, Cambridge & Graham Ross – Magnificat (06:12)
7. Choir of Clare College, Cambridge & Graham Ross – Haustvísur til Máríu (03:23)
8. Choir of Clare College, Cambridge & Graham Ross – Hjá lygnri móðu (03:19)
9. Choir of Clare College, Cambridge & Graham Ross – Afmorsvísa (01:42)
10. Graham Ross & Dmitri Ensemble – Hinsta kveðja for Strings, Op. 53 (08:42)
11. Oscar Simms, Choir of Clare College, Cambridge, Graham Ross & Dominic Wallis – Requiem: I. Introit (04:52)
12. Choir of Clare College, Cambridge & Graham Ross – Requiem: II. Kyrie (04:08)
13. Choir of Clare College, Cambridge, Graham Ross, Hannah Dienes-Williams & Samuel Porteous – Requiem: III. Sanctus (03:20)
14. Choir of Clare College, Cambridge & Graham Ross – Requiem: IV. Benedictus (04:19)
15. Choir of Clare College, Cambridge & Graham Ross – Requiem: V. Agnus Dei (04:08)
16. Choir of Clare College, Cambridge, Graham Ross & Carolyn Sampson – Requiem: VI. Lux æterna (03:02)
17. Choir of Clare College, Cambridge & Graham Ross – Requiem: VII. In paradisum (04:30)
18. Graham Ross, Dmitri Ensemble & Stephanie Gonley – Fljótavik (Arr. G. Button for Violin & String Orchestra) (04:20)

foobar2000 1.4.1 / Dynamic Range Meter 1.1.1
log date: 2022-02-10 18:12:17

––––––––––––––––––––––––––––––––––––––––
Analyzed: Choir of Clare College, Cambridge, Dmitri Ensemble, Carolyn Sampson, Graham Ross / Ice Land: The Eternal Music
––––––––––––––––––––––––––––––––––––––––

DR Peak RMS Duration Track
––––––––––––––––––––––––––––––––––––––––
DR11 -2.37 dB -19.19 dB 10:41 01-Thorvaldsdottir: Ad genua
DR13 -2.45 dB -19.84 dB 3:05 02-Sigurbjörnsson: Heyr, himna smiður
DR11 -3.06 dB -20.96 dB 1:51 03-Baldvinsson: Kvöldvers
DR11 -1.86 dB -19.66 dB 3:48 04-Ragnarsson: Ave Maria
DR12 -3.16 dB -21.39 dB 4:22 05-Thorvaldsdottir: Heyr þú oss himnum á
DR14 -1.13 dB -21.10 dB 6:13 06-Sævarsson: Magnificat
DR11 -1.23 dB -18.96 dB 3:23 07-Sveinsson: Haustvísur til Máríu
DR11 -1.42 dB -18.32 dB 3:20 08-Asgeirsson: Hjá lygnri móðu
DR13 -1.30 dB -21.96 dB 1:43 09-Birgisson: Afmorsvísa
DR12 -2.10 dB -20.23 dB 8:42 10-Leifs: Hinsta kveðja for Strings, Op. 53
DR13 -2.30 dB -22.79 dB 4:52 11-Sævarsson: Requiem: I. Introit
DR13 -1.55 dB -22.42 dB 4:09 12-Sævarsson: Requiem: II. Kyrie
DR13 -3.18 dB -21.98 dB 3:20 13-Sævarsson: Requiem: III. Sanctus
DR11 -3.35 dB -20.82 dB 4:19 14-Sævarsson: Requiem: IV. Benedictus
DR12 -2.12 dB -20.01 dB 4:09 15-Sævarsson: Requiem: V. Agnus Dei
DR12 -5.90 dB -25.76 dB 3:02 16-Sævarsson: Requiem: VI. Lux æterna
DR11 -6.40 dB -23.56 dB 4:30 17-Sævarsson: Requiem: VII. In paradisum
DR12 -3.68 dB -21.41 dB 4:20 18-Rós: Fljótavik (Arr. for Violin and String Orchestra)
––––––––––––––––––––––––––––––––––––––––

Number of tracks: 18
Official DR value: DR12

Samplerate: 96000 Hz
Channels: 2
Bits per sample: 24
Bitrate: 2375 kbps
Codec: FLAC
================================================================================


Thanks to the Original customer!