Tags
Language
Tags

Collegium Vocale Gent & Philippe Herreweghe - Monteverdi: Il quarto libro de madrigali (2022) [Official Digital Download 24/96]

Posted By: delpotro
Collegium Vocale Gent & Philippe Herreweghe - Monteverdi: Il quarto libro de madrigali (2022) [Official Digital Download 24/96]

Collegium Vocale Gent & Philippe Herreweghe - Monteverdi: Il quarto libro de madrigali (2022)
FLAC (tracks) 24-bit/96 kHz | Front Cover & Digital Booklet | Time - 57:08 minutes | 968 MB
Classical, Choral | Label: Phi, Official Digital Download

Monteverdi’s Fourth Book of Madrigals, published in 1603 after an eleven-year gestation, bears witness to the metamorphosis of the madrigal and the rapid evolution of music at the turn of the two centuries. It is also a model of the genre and may be regarded as one of the most innovative and emblematic of its composer’s style.

This bold, complex book is the culmination of the application of the precepts of the seconda pratica on the cusp of the seventeenth century. The dedication tells us that some of its madrigals had been intended for presentation to Duke Alfonso II d’Este (who died in 1597), thus revealing the key influence on this collection of the court of Ferrara, then one of the most sophisticated in Europe and a crucible of musical innovation.

Following the release of the Vespers, Philippe Herreweghe, a great lover of Italy and its repertory, accompanied as ever by Collegium Vocale Gent, signs his second recording devoted to Monteverdi on the Phi label with this Fourth Book of Madrigals.

Tracklist:
1. Il quarto libro de madrigali: I. Ah dolente partita, SV 75 (03:27)
2. Il quarto libro de madrigali: II. Cor mio, mentre vi miro, SV 76 (01:57)
3. Il quarto libro de madrigali: III. Cor mio, non mori? E mori!, SV 77 (02:27)
4. Il quarto libro de madrigali: IV. Sfogava con le stelle un infermo d’amore, SV 78 (03:22)
5. Il quarto libro de madrigali: V. Volgea l'anima mia soavemente, SV 79 (03:25)
6. Il quarto libro de madrigali: VIa. Anima mia, perdona a chi t'è cruda, SV 80a (02:45)
7. Il quarto libro de madrigali: VIb. Che se tu se' il cor mio, SV 80b (02:44)
8. Il quarto libro de madrigali: VII. Luci serene e chiare, voi m'incendete, SV 81 (03:36)
9. Il quarto libro de madrigali: VIII. La piaga c’ho nel core, donna, onde lieta sei, SV 82 (02:05)
10. Il quarto libro de madrigali: IX. Voi pur da me partite, anima dura, SV 83 (03:43)
11. Il quarto libro de madrigali: X. A un giro sol de’ bell’ occhi lucenti, SV 84 (02:12)
12. Il quarto libro de madrigali: XI. Ohimè se tanto amate, SV 85 (02:52)
13. Il quarto libro de madrigali: XII. Io mi son giovinetta, SV 86 (02:32)
14. Il quarto libro de madrigali: XIII. Quel augellin che canta sì dolcemente, SV 87 (02:17)
15. Il quarto libro de madrigali: XIV. Non più guerra, pietate, occhi miei belli, SV 88 (02:41)
16. Il quarto libro de madrigali: XV. Sì ch’io vorrei morire hora ch’io bacio amore, SV 89 (03:05)
17. Il quarto libro de madrigali: XVI. Anima dolorosa che vivendo, SV 90 (02:39)
18. Il quarto libro de madrigali: XVII. Anima del cor mio poi che da me misera me, SV 91 (02:10)
19. Il quarto libro de madrigali: XVIII. Longe da te, cor mio, struggomi di dolore, SV 92 (02:23)
20. Il quarto libro de madrigali: XIX. Piagn’e sospira e quandi caldi raggi, SV 93 (04:38)

foobar2000 1.4.1 / Dynamic Range Meter 1.1.1
log date: 2022-05-03 19:42:40

––––––––––––––––––––––––––––––––––––––––
Analyzed: Collegium Vocale Gent and Philippe Herreweghe / Monteverdi: Il quarto libro de madrigali
––––––––––––––––––––––––––––––––––––––––

DR Peak RMS Duration Track
––––––––––––––––––––––––––––––––––––––––
DR14 -3.78 dB -24.11 dB 3:28 01-Monteverdi: Il quarto libro de madrigali: I. Ah dolente partita, SV 75
DR14 -5.92 dB -26.88 dB 1:58 02-Monteverdi: Il quarto libro de madrigali: II. Cor moi, mentre vi miro, SV 76
DR17 -1.30 dB -24.64 dB 2:28 03-Monteverdi: Il quarto libro de madrigali: III. Cor moi, non mori?, SV 77
DR12 -0.31 dB -23.86 dB 3:22 04-Monteverdi: Il quarto libro de madrigali: IV. Sfogava con le stelle un infermo d’amore, SV 78
DR14 -4.00 dB -25.37 dB 3:25 05-Monteverdi: Il quarto libro de madrigali: V. Volgea l'anima mia soavemente, SV 79
DR12 -4.02 dB -24.90 dB 2:46 06-Monteverdi: Il quarto libro de madrigali: VIa. Anima mia, perdona a chi tè cruda, SV 80a
DR13 -5.77 dB -24.44 dB 2:44 07-Monteverdi: Il quarto libro de madrigali: VIb. Che se tu se' il cor moi, SV 80b
DR16 -1.13 dB -23.66 dB 3:36 08-Monteverdi: Il quarto libro de madrigali: VII. Luci serene e chiare voi mincendete, SV 81
DR13 -6.73 dB -25.85 dB 2:05 09-Monteverdi: Il quarto libro de madrigali: VIII. La piaga c’ho nel core donna onde lieta sei, SV 82
DR13 -5.43 dB -25.45 dB 3:44 10-Monteverdi: Il quarto libro de madrigali: IX. Voi pur da me partite, anima dura, SV 83
DR11 -3.13 dB -22.89 dB 2:13 11-Monteverdi: Il quarto libro de madrigali: X. A un giro sol de’ bell’ occhi lucenti, SV 84
DR15 -4.38 dB -25.14 dB 2:52 12-Monteverdi: Il quarto libro de madrigali: XI. Ohimè se tanto amate, SV 85
DR13 -4.65 dB -23.86 dB 2:32 13-Monteverdi: Il quarto libro de madrigali: XII. Io mi son giovinetta, SV 86
DR13 -6.09 dB -24.65 dB 2:18 14-Monteverdi: Il quarto libro de madrigali: XIII. Quel augellin che canta sì dolcemente, SV 87
DR13 -4.51 dB -25.05 dB 2:41 15-Monteverdi: Il quarto libro de madrigali: XIV. Non più guerra pietate occhi miei belli, SV 88
DR13 -4.32 dB -24.11 dB 3:06 16-Monteverdi: Il quarto libro de madrigali: XV. Sì ch’io vorrei morire hora ch’io bacio amore, SV 89
DR13 -5.23 dB -25.46 dB 2:39 17-Monteverdi: Il quarto libro de madrigali: XVI. Anima dolorosa che vivendo, SV 90
DR14 -6.58 dB -25.50 dB 2:10 18-Monteverdi: Il quarto libro de madrigali: XVII. Anima del cor mio poi che da me misera me, SV 91
DR13 -8.78 dB -26.69 dB 2:24 19-Monteverdi: Il quarto libro de madrigali: XVIII. Longe da te, cor mio, struggomi di dolore, SV 92
DR13 -7.85 dB -27.03 dB 4:38 20-Monteverdi: Il quarto libro de madrigali: XIX. Piagn’e sospira e quandi caldi raggi, SV 93
––––––––––––––––––––––––––––––––––––––––

Number of tracks: 20
Official DR value: DR13

Samplerate: 96000 Hz
Channels: 2
Bits per sample: 24
Bitrate: 2336 kbps
Codec: FLAC
================================================================================


Thanks to the Original customer!