Tags
Language
Tags

Dana Winner - Beautiful Life (2005) MCH SACD ISO + DSD64 + Hi-Res FLAC

Posted By: HDAtall
Dana Winner - Beautiful Life (2005) MCH SACD ISO + DSD64 + Hi-Res FLAC

Dana Winner - Beautiful Life (2005)
SACD Rip | SACD ISO | DST64 2.0 & 5.1 > 1-bit/2.8224 MHz | 48:34 minutes | Scans included | 3,09 GB
or DSD64 Stereo (from SACD-ISO to Tracks.dsf) > 1-bit/2.8224 MHz | Full Scans included | 2,01 GB
or FLAC 2.0 (carefully converted & encoded to tracks) 24bit/96 kHz | Full Scans included | 1,15 GB
Features Stereo and Multichannel Surround Sound

Dana Winner is the stage name of Chantal Vanlee. She is a Belgian singer who is famous especially in Flanders and the Netherlands. After her first success, Dana Winner also became well known in Germany and South Africa. At the end of the 1990s, she began singing in other languages and did not release an album in Dutch between 2000 and 2006.

Tracklist:

01. It's a beautiful life
02. Sail Away
03. Stand van de maan
04. Where your road leads
05. Every night
06. End of time
07. Wherever you go
08. Tweede jeugd
09. Angels
10. Love the one you're with
11. Falling from grace
12. Je pense a toi
13. Man in the moon

foobar2000 1.6.6 / Dynamic Range Meter 1.1.1

––––––––––––––––––––––––––––––––––––––––
Analyzed: DANA WINNER / BEAUTIFL LIFE
––––––––––––––––––––––––––––––––––––––––

DR Peak RMS Duration Track
––––––––––––––––––––––––––––––––––––––––
DR11 -6.31 dB -21.15 dB 3:54 01-It's a beautiful life
DR11 -6.60 dB -22.06 dB 3:04 02-Sail Away
DR11 -7.31 dB -23.15 dB 4:15 03-Stand van de maan
DR11 -6.89 dB -23.49 dB 3:24 04-Where your road leads
DR12 -6.19 dB -21.66 dB 3:25 05-Every night
DR13 -7.42 dB -23.57 dB 3:06 06-End of time
DR11 -6.35 dB -21.59 dB 4:14 07-Wherever you go
DR11 -6.67 dB -21.54 dB 3:39 08-Tweede jeugd
DR10 -6.64 dB -21.93 dB 3:01 09-Angels
DR14 -6.16 dB -23.50 dB 3:37 10-Love the one you're with
DR14 -6.49 dB -24.20 dB 5:02 11-Falling from grace
DR11 -7.02 dB -23.42 dB 3:34 12-Je pense a toi
DR11 -7.34 dB -22.77 dB 4:17 13-Man in the moon
––––––––––––––––––––––––––––––––––––––––

Number of tracks: 13
Official DR value: DR12

Samplerate: 2822400 Hz / PCM Samplerate: 176400 Hz
Channels: 6
Bits per sample: 24
Bitrate: 16934 kbps
Codec: DST64
================================================================================

––––––––––––––––––––––––––––––––––––––––
Analyzed: DANA WINNER / BEAUTIFL LIFE
––––––––––––––––––––––––––––––––––––––––

DR Peak RMS Duration Track
––––––––––––––––––––––––––––––––––––––––
DR10 -5.18 dB -17.03 dB 3:54 01-It's a beautiful life
DR9 -5.35 dB -15.96 dB 3:04 02-Sail Away
DR11 -5.10 dB -18.15 dB 4:15 03-Stand van de maan
DR9 -4.99 dB -17.02 dB 3:24 04-Where your road leads
DR10 -4.69 dB -15.96 dB 3:25 05-Every night
DR10 -5.37 dB -17.87 dB 3:06 06-End of time
DR10 -5.05 dB -17.03 dB 4:14 07-Wherever you go
DR10 -5.02 dB -16.20 dB 3:39 08-Tweede jeugd
DR10 -5.13 dB -17.92 dB 3:01 09-Angels
DR11 -5.15 dB -17.79 dB 3:37 10-Love the one you're with
DR10 -4.77 dB -18.62 dB 5:02 11-Falling from grace
DR10 -5.32 dB -17.58 dB 3:34 12-Je pense a toi
DR10 -5.10 dB -17.84 dB 4:17 13-Man in the moon
––––––––––––––––––––––––––––––––––––––––

Number of tracks: 13
Official DR value: DR10

Samplerate: 2822400 Hz / PCM Samplerate: 176400 Hz
Channels: 2
Bits per sample: 24
Bitrate: 5645 kbps
Codec: DST64


Thanks to grillbrill!
Uncompressed SACD ISO size > 2,93 GB
>