Tags
Language
Tags

Dana Winner - Unforgettable Too (2002) MCH PS3 ISO + DSD64 + Hi-Res FLAC

Posted By: HDAtall
Dana Winner - Unforgettable Too (2002) MCH PS3 ISO + DSD64 + Hi-Res FLAC

Dana Winner - Unforgettable Too (2002)
PS3 Rip | SACD ISO | DST64 2.0 & 5.1 > 1-bit/2.8224 MHz | 61:32 minutes | Scans included | 4,52 GB
or DSD64 Stereo (from SACD-ISO to Tracks.dsf) > 1-bit/2.8224 MHz | Full Scans included | 1,82 GB
or FLAC 2.0 (carefully converted & encoded to tracks) 24bit/44,1 kHz | Full Scans included | 761 MB
Features Stereo and Multichannel Surround Sound

Dana Winner is the stage name of Chantal Vanlee. She is a Belgian singer who is famous especially in Flanders and the Netherlands. After her first success, Dana Winner also became well known in Germany and South Africa. At the end of the 1990s, she began singing in other languages and did not release an album in Dutch between 2000 and 2006.

Tracklist:

01. Conquest of Paradise
02. Love Is All
03. Sealed With A Kiss
04. Everything I Do
05. Downtown
06. Don't It Make My Brown Eyes Blue
07. Dust In The Wind
08. Try To Remember
09. It's A Heartache
10. Love Is The Reason To Be
11. Crying
12. Plaisir d'Amour - Can't Help Falling In Love
13. Against All Odds
14. Streets of London
15. ABBA Medley

foobar2000 1.6.6 / Dynamic Range Meter 1.1.1

––––––––––––––––––––––––––––––––––––––––
Analyzed: Dana Winner / Unforgettable Too
––––––––––––––––––––––––––––––––––––––––

DR Peak RMS Duration Track
––––––––––––––––––––––––––––––––––––––––
DR12 -5.25 dB -21.84 dB 4:10 01-Conquest of Paradise
DR13 -5.61 dB -22.52 dB 3:27 02-Love Is All
DR12 -6.14 dB -23.88 dB 3:11 03-Sealed With A Kiss
DR12 -4.81 dB -23.10 dB 4:11 04-Everything I Do
DR12 -5.49 dB -22.95 dB 3:17 05-Downtown
DR13 -6.42 dB -25.78 dB 3:53 06-Don't It Make My Brown Eyes Blue
DR12 -7.38 dB -24.91 dB 3:43 07-Dust In The Wind
DR11 -6.56 dB -25.17 dB 3:32 08-Try To Remember
DR12 -5.32 dB -22.46 dB 3:31 09-It's A Heartache
DR12 -5.18 dB -22.09 dB 4:01 10-Love Is The Reason To Be
DR13 -6.19 dB -25.12 dB 3:22 11-Crying
DR11 -6.03 dB -23.32 dB 4:10 12-Plaisir d'Amour - Can't Help Falling In Love
DR12 -5.52 dB -22.51 dB 3:26 13-Against All Odds
DR13 -5.86 dB -25.31 dB 4:15 14-Streets of London
DR13 -5.64 dB -22.82 dB 9:23 15-ABBA Medley
––––––––––––––––––––––––––––––––––––––––

Number of tracks: 15
Official DR value: DR12

Samplerate: 2822400 Hz / PCM Samplerate: 88200 Hz
Channels: 6
Bits per sample: 24
Bitrate: 16934 kbps
Codec: DST64
================================================================================

––––––––––––––––––––––––––––––––––––––––
Analyzed: Dana Winner / Unforgettable Too
––––––––––––––––––––––––––––––––––––––––

DR Peak RMS Duration Track
––––––––––––––––––––––––––––––––––––––––
DR9 -5.35 dB -17.53 dB 4:10 01-Conquest of Paradise
DR10 -4.85 dB -16.81 dB 3:27 02-Love Is All
DR10 -5.19 dB -18.12 dB 3:11 03-Sealed With A Kiss
DR9 -4.74 dB -17.36 dB 4:11 04-Everything I Do
DR9 -5.32 dB -17.29 dB 3:17 05-Downtown
DR10 -5.87 dB -18.54 dB 3:53 06-Don't It Make My Brown Eyes Blue
DR10 -5.89 dB -18.44 dB 3:43 07-Dust In The Wind
DR9 -5.63 dB -19.08 dB 3:32 08-Try To Remember
DR9 -4.98 dB -16.85 dB 3:31 09-It's A Heartache
DR9 -4.50 dB -17.24 dB 4:01 10-Love Is The Reason To Be
DR10 -5.38 dB -18.63 dB 3:22 11-Crying
DR8 -4.99 dB -17.36 dB 4:10 12-Plaisir d'Amour - Can't Help Falling In Love
DR9 -4.42 dB -17.04 dB 3:26 13-Against All Odds
DR12 -5.85 dB -20.42 dB 4:15 14-Streets of London
DR9 -5.15 dB -16.97 dB 9:23 15-ABBA Medley
––––––––––––––––––––––––––––––––––––––––

Number of tracks: 15
Official DR value: DR9

Samplerate: 2822400 Hz / PCM Samplerate: 88200 Hz
Channels: 2
Bits per sample: 24
Bitrate: 5645 kbps
Codec: DST64


Thanks to grillbrill!
Uncompressed SACD ISO size > 4,32 GB
>