David Oistrakh, The Cleveland Orchestra, George Szell - Brahms: Violin Concerto in D, Op.77 (1970) [Japan 2010] SACD + FLAC

Posted By: HDAtall
David Oistrakh, The Cleveland Orchestra, George Szell - Brahms: Violin Concerto in D, Op.77 (1970) [Japan 2010] SACD + FLAC

David Oistrakh, The Cleveland Orchestra, George Szell - Brahms: Violin Concerto in D, Op.77 (1970) [Japan 2010]
SACD Rip | SACD ISO | DSD64 2.0 > 1-bit/2.8224 MHz | 40:40 minutes | Scans NOT included | 1,11 GB
or FLAC (converted with foobar2000 to tracks) 24bit/96 kHz | Scans NOT included | 900 MB
This new audio version feature newly remastered DSD master / Esoteric Japan # ESSE-90044

David Oistrakh, the celebrated Russian violinist, was one of a small group of Soviet artists invited by EMI to participate in their program of recording for the first time with major orchestras in the USA, following the end of the company's long-standing reciprocal licensing arrangements with CBS and RCA. EMI's first venture in this field was a set of Beethoven Piano Concertos with Emil Gilels as soloist, made with the Cleveland Orchestra under its Hungarian conductor George Szell in the Severance Hall, Cleveland, in April and May 1968. This was followed in May 1969 with the Brahms Violin Concerto with Oistrakh and the Brahms Double Concerto with Oistrakh and Rostropovich. The Penguin Guide said of the LP of the Violin Concerto that the performance was "full of controlled feeling and disciplined vitality that must be numbered among the finest of the full-price versions available".

Tracklist:

01. Brahms: Concerto for Violin and Orchestra in D Op.77: I. Allegro non troppo (cadenza: J. Joachim)
02. Brahms: Concerto for Violin and Orchestra in D Op.77: II. Adagio
03. Brahms: Concerto for Violin and Orchestra in D Op.77: III. Allegro giocoso, ma non troppo vivace

Recorded at Severance Hall, Creveland, Ohio, on May 13 & 16, 1969
Remastering Engineer: Kazuie Sugimoto (JVC Mastering Center).

foobar2000 1.4.4 / Dynamic Range Meter 1.1.1

––––––––––––––––––––––––––––––––––––––––
Analyzed: David Oistrakh, Cleveland Orchestra, George Szell / Brahms: Concerto for Violin and Orchestra in D Op.77
––––––––––––––––––––––––––––––––––––––––

DR Peak RMS Duration Track
––––––––––––––––––––––––––––––––––––––––
DR11 -7.68 dB -24.78 dB 22:32 01-Brahms: Concerto for Violin and Orchestra in D Op.77: I. Allegro non troppo (cadenza: J. Joachim)
DR13 -8.09 dB -27.34 dB 9:37 02-Brahms: Concerto for Violin and Orchestra in D Op.77: II. Adagio
DR11 -7.00 dB -22.49 dB 8:31 03-Brahms: Concerto for Violin and Orchestra in D Op.77: III. Allegro giocoso, ma non troppo vivace
––––––––––––––––––––––––––––––––––––––––

Number of tracks: 3
Official DR value: DR12

Samplerate: 2822400 Hz / PCM Samplerate: 176400 Hz
Channels: 2
Bits per sample: 24
Bitrate: 5645 kbps
Codec: DSD64


Thanks to Stas!
Uncompressed SACD ISO size > 1,63 GB
>