David Oistrakh, Lev Oborin - Beethoven. Violin Sonatas 5 & 9 (1962) [Japan 2015] PS3 ISO + Hi-Res FLAC

Posted By: HDAtall
David Oistrakh, Lev Oborin - Beethoven. Violin Sonatas 5 & 9 (1962) [Japan 2015] PS3 ISO + Hi-Res FLAC

David Oistrakh, Lev Oborin - Beethoven. Violin Sonatas 5 & 9 (1962) [Japan 2015]
PS3 Rip | SACD ISO | DSD64 2.0 > 1-bit/2.8224 MHz | 58:42 minutes | Scans NOT included | 1,66 GB
or FLAC(converted with foobar2000 to tracks) 24bit/88,2 kHz | Scans NOT included | 1022 MB

The reissue of classical music masterpieces by ESOTERIC has attracted a lot of attention, both for its uncompromising commitment to recreating the original master sound, and for using hybrid Super Audio CD (SACD) technology to improve sound quality. This series marks the first hybrid SACD release of historical recording selections that have been mainstays of the catalog since their initial release.
These new audio versions feature ESOTERIC´s proprietary re-mastering process to achieve the highest level of sound quality.

Tracklist:

01. Sonata for Violin and Piano No.9 in A major, Op.47 "Kreutzer": 1. Adagio sostenuto - Presto
02. Sonata for Violin and Piano No.9 in A major, Op.47 "Kreutzer": 2. Andante con variazioni
03. Sonata for Violin and Piano No.9 in A major, Op.47 "Kreutzer": 3. Finale (Presto)
04. Sonata for Violin and Piano No.5 in F major, Op.24 "Spring": 1. Allegro
05. Sonata for Violin and Piano No.5 in F major, Op.24 "Spring": 2. Adagio molto espressivo
06. Sonata for Violin and Piano No.5 in F major, Op.24 "Spring": 3. Scherzo (Allegro molto)
07. Sonata for Violin and Piano No.5 in F major, Op.24 "Spring": 4. Rondo (Allegro ma non troppo)

Recorded in October 1962 at Le Chant du Monde, Paris, France.
Mastering Engineer : Kazuie Sugimoto (Victor Creative Media Co., Ltd. Mastering Center)

David Oistrakh - Violin
Lev Oborin - Piano

foobar2000 1.4.5 / Dynamic Range Meter 1.1.1

––––––––––––––––––––––––––––––––––––––––
Analyzed: David Oistrakh, Lev Oborin / Beethoven: Violin Sonatas No.9 "Kreutzer" & No.5 "Spring"
––––––––––––––––––––––––––––––––––––––––

DR Peak RMS Duration Track
––––––––––––––––––––––––––––––––––––––––
DR12 -10.40 dB -25.54 dB 11:41 01-1. Adagio sostenuto - Presto [Sonata for Violin and Piano No.9 in A major, Op.47 "Kreutzer"]
DR14 -10.55 dB -28.79 dB 15:25 02-2. Andante con variazioni [Sonata for Violin and Piano No.9 in A major, Op.47 "Kreutzer"]
DR12 -10.45 dB -26.74 dB 7:00 03-3. Finale (Presto) [Sonata for Violin and Piano No.9 in A major, Op.47 "Kreutzer"]
DR14 -10.76 dB -28.10 dB 10:12 04-1. Allegro [Sonata for Violin and Piano No.5 in F major, Op.24 "Spring"]
DR15 -11.65 dB -30.64 dB 6:05 05-2. Adagio molto espressivo [Sonata for Violin and Piano No.5 in F major, Op.24 "Spring"]
DR14 -10.03 dB -28.26 dB 1:19 06-3. Scherzo (Allegro molto) [Sonata for Violin and Piano No.5 in F major, Op.24 "Spring"]
DR13 -9.41 dB -26.88 dB 6:59 07-4. Rondo (Allegro ma non troppo) [Sonata for Violin and Piano No.5 in F major, Op.24 "Spring"]
––––––––––––––––––––––––––––––––––––––––

Number of tracks: 7
Official DR value: DR13

Samplerate: 2822400 Hz / PCM Samplerate: 176400 Hz
Channels: 2
Bits per sample: 1
Bitrate: 5645 kbps
Codec: DSD64


Uncompressed SACD ISO size > 2,35 GB
>