Tags
Language
Tags

Dmitry Sinkovsky & La Voce Strumentale - Akhunov: Songs and Poems (2021) [Official Digital Download]

Posted By: delpotro
Dmitry Sinkovsky & La Voce Strumentale - Akhunov: Songs and Poems (2021) [Official Digital Download]

Dmitry Sinkovsky & La Voce Strumentale - Akhunov: Songs and Poems (2021)
FLAC (tracks) 24-bit/44,1 kHz | Front Cover & Digital Booklet | Time - 66:25 minutes | 604 MB
Classical, Vocal | Label: Glossa, Official Digital Download

The Russian composer Sergey Akhunov (b. 1967) was educated at the Kiev State Conservatory, before he started his career as an oboe player. He subsequently gained experience in various musical styles and genres such as electronic music and rock. In the mid-2000s, he consistently turned to composing orchestral, chamber and vocal music, but also film music. This recording presents vocal music by Akhunov, including "Songs", which he wrote as a commission for La Voce Strumentale. Dmitry Sinkovsky as the spiritus rector of the recording - he is at the same time singer (countertenor) and conductor - succeeds in an impressive way, among others seconded by soprano Julia Lezhneva in three songs, in combining tonal contemporary music with the sound of an early music ensemble.

Tracklist:
01. Akhunov: Poems: Though your sorrows not
02. Akhunov: Poems: There Is a moon sole
03. Akhunov: Poems: Who sharpens every dull
04. Akhunov: Poems: Rain or hail
05. Akhunov: Poems: I carry your heart with me
06. Akhunov: Poems: D-re-a-mi-n-gl-y
07. Akhunov: The Imprint (for strings)
08. Akhunov: Songs: These things amazed me
09. Akhunov: Songs: Homeland! My heart shouted
10. Akhunov: Songs: The pond says
11. Akhunov: Songs: In falling, they fall not
12. Akhunov: Songs: There–on a mountain
13. Akhunov: Songs: Do you know
14. Akhunov: Songs: Not in This world
15. Akhunov: Cherubic chant (for strings)

foobar2000 1.4.1 / Dynamic Range Meter 1.1.1
log date: 2021-09-29 16:19:59

––––––––––––––––––––––––––––––––––––––––
Analyzed: Dmitry Sinkovsky & La Voce Strumentale / Songs and Poems
––––––––––––––––––––––––––––––––––––––––

DR Peak RMS Duration Track
––––––––––––––––––––––––––––––––––––––––
DR14 -0.50 dB -20.33 dB 7:00 01-Akhunov: Poems: Though your sorrows not
DR11 -2.90 dB -24.00 dB 2:53 02-Akhunov: Poems: There Is a moon sole
DR13 -0.50 dB -18.13 dB 6:40 03-Akhunov: Poems: Who sharpens every dull
DR14 0.00 dB -19.48 dB 1:29 04-Akhunov: Poems: Rain or hail
DR14 -0.50 dB -19.78 dB 5:28 05-Akhunov: Poems: I carry your heart with me
DR12 -3.55 dB -22.24 dB 5:44 06-Akhunov: Poems: D-re-a-mi-n-gl-y
DR15 -1.00 dB -23.77 dB 5:55 07-Akhunov: The Imprint (for strings)
DR11 -13.00 dB -30.36 dB 1:31 08-Akhunov: Songs: These things amazed me
DR11 -0.50 dB -18.44 dB 2:24 09-Akhunov: Songs: Homeland! My heart shouted
DR13 -0.50 dB -19.36 dB 5:45 10-Akhunov: Songs: The pond says
DR13 -0.50 dB -18.37 dB 2:23 11-Akhunov: Songs: In falling, they fall not
DR13 -0.50 dB -18.26 dB 4:29 12-Akhunov: Songs: There–on a mountain
DR14 -2.00 dB -23.08 dB 5:11 13-Akhunov: Songs: Do you know
DR13 -1.50 dB -21.14 dB 5:34 14-Akhunov: Songs: Not in This world
DR12 -4.50 dB -22.23 dB 4:00 15-Akhunov: Cherubic chant (for strings)
––––––––––––––––––––––––––––––––––––––––

Number of tracks: 15
Official DR value: DR13

Samplerate: 44100 Hz
Channels: 2
Bits per sample: 24
Bitrate: 1276 kbps
Codec: FLAC
================================================================================


Thanks to the Original customer!