Tags
Language
Tags

Duilio Meucci - Castelnuovo-Tedesco: Guitar Chamber Music (2021) [Official Digital Download 24/96]

Posted By: delpotro
Duilio Meucci - Castelnuovo-Tedesco: Guitar Chamber Music (2021) [Official Digital Download 24/96]

Duilio Meucci - Castelnuovo-Tedesco: Guitar Chamber Music (2021)
FLAC (tracks) 24-bit/96 kHz | Front Cover & Digital Booklet | Time - 60:28 minutes | 857 MB
Classical | Label: Stradivarius, Official Digital Download

A monograph on the chamber music for guitar by Mario Castelnuovo-Tedesco is not a new operation, nor is it particularly original: the numbers of works that the Maestro be-queathed to the six strings significantly occupy the entire last season of the Florentine composer’s life and work. It was evident in his perception that “chamber music would be the salvation of the classical guitar”. However, this disc is not born from a compiling ur-gency, from a need to combine a catalog and observe it with fetishism in its entirety, - after all, there are many chamber pieces missing from the entire corpus, not to mention the vocal chamber music and the music for two guitars, here only partially addressed. Rather, from the desire to contemplate in a different perspective some elements of a rich legacy that still today stimulates and fascinates the interpreters who approach it. The title “Appunti” (Notes) is anything but casual, as are the works chosen to represent it. In recounting this repertoire, my will - with the help of a homogeneous time span going from 1950 to the last days of the Maestro’s life - has been to highlight the possibilities of salvation that the guitar assumes through chamber music, with compositional skills that can still be defined as exemplary acts of bravura and happy inspiration, unsurpassed to this day. As on a notebook, the notes collected take shape, and become the argument for possibilities, then become thesis, evidence, and, eventually, memory.

Tracklist:
1. Quintet for Guitar & Strings, Op. 143: I. Allegro, vivo e schietto (06:07)
2. Quintet for Guitar & Strings, Op. 143: II. Andante mesto (08:11)
3. Quintet for Guitar & Strings, Op. 143: III. Scherzo. Allegro con spirito, alla marcia (05:01)
4. Quintet for Guitar & Strings, Op. 143: IV. Finale. Allegro con fuoco (05:55)
5. Aria, Op. 146a (Transcr. F. Venga for Guitar, Flute & Viola) (05:26)
6. Sonatina for Flute & Guitar, Op. 205: I. Allegretto grazioso (04:08)
7. Sonatina for Flute & Guitar, Op. 205: II. Tempo di siciliana (04:23)
8. Sonatina for Flute & Guitar, Op. 205: III. Scherzo. Rondo (04:12)
9. Fantasia for Guitar & Piano, Op. 145: I. Andantino (06:08)
10. Fantasia for Guitar & Piano, Op. 145: II. Vivacissimo (03:25)
11. Fuga elegiaca, Op. 210a (04:21)
12. Appunti, preludi e studi, Op. 210, Libro 1: No. 2, Melodia senza accompagnamento "Una preghiera" (03:08)

foobar2000 1.4.1 / Dynamic Range Meter 1.1.1
log date: 2021-07-05 12:29:43

––––––––––––––––––––––––––––––––––––––––
Analyzed: Duilio Meucci / Castelnuovo-Tedesco: Guitar Chamber Music
––––––––––––––––––––––––––––––––––––––––

DR Peak RMS Duration Track
––––––––––––––––––––––––––––––––––––––––
DR14 -0.20 dB -18.67 dB 6:07 01-Castelnuovo-Tedesco: Quintet for Guitar & Strings, Op. 143: I. Allegro, vivo e schietto
DR14 -0.71 dB -21.10 dB 8:11 02-Castelnuovo-Tedesco: Quintet for Guitar & Strings, Op. 143: II. Andante mesto
DR13 -1.03 dB -19.38 dB 5:01 03-Castelnuovo-Tedesco: Quintet for Guitar & Strings, Op. 143: III. Scherzo. Allegro con spirito, alla marcia
DR13 -0.03 dB -17.17 dB 5:55 04-Castelnuovo-Tedesco: Quintet for Guitar & Strings, Op. 143: IV. Finale. Allegro con fuoco
DR13 -3.55 dB -20.84 dB 5:26 05-Castelnuovo-Tedesco: Aria, Op. 146a (Transcr. F. Venga for Guitar, Flute & Viola)
DR15 -2.16 dB -21.92 dB 4:08 06-Castelnuovo-Tedesco: Sonatina for Flute & Guitar, Op. 205: I. Allegretto grazioso
DR12 -5.97 dB -23.17 dB 4:24 07-Castelnuovo-Tedesco: Sonatina for Flute & Guitar, Op. 205: II. Tempo di siciliana
DR14 -0.20 dB -18.93 dB 4:13 08-Castelnuovo-Tedesco: Sonatina for Flute & Guitar, Op. 205: III. Scherzo. Rondo
DR16 -0.57 dB -23.21 dB 6:08 09-Castelnuovo-Tedesco: Fantasia for Guitar & Piano, Op. 145: I. Andantino
DR13 -0.92 dB -18.74 dB 3:25 10-Castelnuovo-Tedesco: Fantasia for Guitar & Piano, Op. 145: II. Vivacissimo
DR15 -0.30 dB -19.99 dB 4:22 11-Castelnuovo-Tedesco: Fuga elegiaca, Op. 210a
DR14 -4.47 dB -26.22 dB 3:08 12-Castelnuovo-Tedesco: Appunti, preludi e studi, Op. 210, Libro 1: No. 2, Melodia senza accompagnamento "Una preghiera"
––––––––––––––––––––––––––––––––––––––––

Number of tracks: 12
Official DR value: DR14

Samplerate: 96000 Hz
Channels: 2
Bits per sample: 24
Bitrate: 1609 kbps
Codec: FLAC
================================================================================


Thanks to the Original customer!