Tags
Language
Tags
February 2024
Su Mo Tu We Th Fr Sa
28 29 30 31 1 2 3
4 5 6 7 8 9 10
11 12 13 14 15 16 17
18 19 20 21 22 23 24
25 26 27 28 29 1 2
Attention❗ To save your time, in order to download anything on this site, you must be registered 👉 HERE. If you do not have a registration yet, it is better to do it right away. ✌

( • )( • ) ( ͡⚆ ͜ʖ ͡⚆ ) (‿ˠ‿)
SpicyMags.xyz

Duo Cello e Basso, Pascale Delache-Feldman, Emmanuel Feldman & Victor Cayres - Gardel & Piazzolla: Let's Tango! (2023) [24/96]

Posted By: delpotro
Duo Cello e Basso, Pascale Delache-Feldman, Emmanuel Feldman & Victor Cayres - Gardel & Piazzolla: Let's Tango! (2023) [24/96]

Duo Cello e Basso, Pascale Delache-Feldman, Emmanuel Feldman & Victor Cayres - Gardel & Piazzolla: Let's Tango! (2023)
FLAC (tracks) 24-bit/96 kHz | Front Cover | Time - 67:10 minutes | 1,19 GB
Classical | Label: Navona Records, Official Digital Download

On LET’S TANGO, Duo Cello e Basso with French double bassist Pascale Delache-Feldman and cellist Emmanuel Feldman invites listeners to experience some of the celebrated genre’s greatest masterpieces. Joined by pianist Victor Cayres, the centerpiece of the album is the duos’ arrangement of Piazzolla’s Four Seasons of Buenos Aires that they perform in concerts around the United States including a recent appearance at the Kennedy Center in Washington DC. Other Piazzolla works with piano include Kicho, an original work for solo double bass and Le Grand Tango, written originally for cellist Mstislav Rostropovich. The album also includes a trio arrangement of Por una Cabeza and El Dia que me Quieras by famed 20th century tango composer Carlos Gardel. Full of the longing and passion characteristic of tango music and paired with the rich dynamic range of the bass and cello, LET’S TANGO offers fresh new interpretations of these classic works.

Tracklist:
01. Gardel: El Dia Que Me Quieras
02. Gardel: Por Una Cabeza
03. Piazzolla: Kicho for double bass and piano
04. Piazzolla: Le Grand Tango for cello and piano
05. Piazzolla: Five Tangos for cello and double bass: J'attends
06. Piazzolla: Five Tangos for cello and double bass: La Misma Pena
07. Piazzolla: Five Tangos for cello and double bass: Saint Louis en L'Ile
08. Piazzolla: Five Tangos for cello and double bass: Guardia Nueva
09. Piazzolla: Five Tangos for cello and double bass: Adios Nonino
10. Piazzolla: Four Seasons of Buenos Aires: Verano Porteño (Summer)
11. Piazzolla: Four Seasons of Buenos Aires: Otoño Porteño (Autumn)
12. Piazzolla: Four Seasons of Buenos Aires: Invierno Porteño (Winter)
13. Piazzolla: Four Seasons of Buenos Aires: Primavera Porteña (Spring)

foobar2000 1.4.1 / Dynamic Range Meter 1.1.1
log date: 2023-12-05 18:59:26

––––––––––––––––––––––––––––––––––––––––
Analyzed: Duo Cello e Basso, Pascale Delache-Feldman, Emmanuel Feldman & Victor Cayres / Let's Tango!
––––––––––––––––––––––––––––––––––––––––

DR Peak RMS Duration Track
––––––––––––––––––––––––––––––––––––––––
DR13 -0.56 dB -18.98 dB 4:42 01-Gardel: El Dia Que Me Quieras
DR9 -0.54 dB -14.19 dB 3:19 02-Gardel: Por Una Cabeza
DR11 -0.54 dB -15.92 dB 6:52 03-Piazzolla: Kicho for double bass and piano
DR11 -0.54 dB -14.46 dB 11:05 04-Piazzolla: Le Grand Tango for cello and piano
DR12 -1.32 dB -17.43 dB 3:15 05-Piazzolla: Five Tangos for cello and double bass: J'attends
DR11 -1.88 dB -17.31 dB 2:53 06-Piazzolla: Five Tangos for cello and double bass: La Misma Pena
DR11 -0.97 dB -16.03 dB 2:45 07-Piazzolla: Five Tangos for cello and double bass: Saint Louis en L'Ile
DR12 -0.54 dB -17.06 dB 3:52 08-Piazzolla: Five Tangos for cello and double bass: Guardia Nueva
DR11 -1.27 dB -16.06 dB 4:38 09-Piazzolla: Five Tangos for cello and double bass: Adios Nonino
DR11 -0.54 dB -15.46 dB 6:59 10-Piazzolla: Four Seasons of Buenos Aires: Verano Porteño (Summer)
DR11 -0.54 dB -15.91 dB 5:44 11-Piazzolla: Four Seasons of Buenos Aires: Otoño Porteño (Autumn)
DR11 -0.54 dB -15.84 dB 6:39 12-Piazzolla: Four Seasons of Buenos Aires: Invierno Porteño (Winter)
DR10 -0.54 dB -13.96 dB 4:28 13-Piazzolla: Four Seasons of Buenos Aires: Primavera Porteña (Spring)
––––––––––––––––––––––––––––––––––––––––

Number of tracks: 13
Official DR value: DR11

Samplerate: 96000 Hz
Channels: 2
Bits per sample: 24
Bitrate: 2599 kbps
Codec: FLAC
================================================================================


Thanks to the Original customer!