Elvis Presley - Essential Elvis Volume 2: Stereo '57 (1988) [Analogue Productions 2013] PS3 ISO + Hi-Res FLAC

Posted By: HDAtall
Elvis Presley - Essential Elvis Volume 2: Stereo '57 (1988) [Analogue Productions 2013] PS3 ISO + Hi-Res FLAC

Elvis Presley - Essential Elvis Volume 2: Stereo '57 (1988) [APO Remaster 2013]
PS3 Rip | ISO | SACD DSD64 Stereo > 1-bit/2.8224 MHz | 60:13 minutes | Full Scans included | 1,7 GB
or FLAC 2.0 Stereo (converted with foobar2000 to tracks) 24bit/96 kHz | Scans included | 1,33 GB

The second volume of Essential Elvis offers Elvis in binaural stereo from the January 1957 sessions that produced several hits. (RCA Victor generously filled the disc out with mono masters of the remaining songs to give the consumer a complete version of the sessions.) This is a lot of fun; the gaffes are numerous, obvious, and hilarious, and for ears raised on multi-track recording, it must be amazing to hear an entire record recorded live in the studio!

Tracklist:

01. I Beg Of You (Take 1)
02. Is It So Strange (Take 1)
03. Have I Told You Lately That I Love (Take 2)
04. It Is No Secret (What God Can Do) (Takes 1,2,3)
05. Blueberry Hill (Take 2)
06. Mean Woman Blues (Take 14)
07. There'll Be Peace In The Valley (Takes 2,3)
08. Have I Told You Lately I Love You (Take 6)
09. Blueberry Hill (Take 7)
10. That's When Your Heartaches Begin (Takes 4,5,6)
11. Is It So Strange (Takes 7,11)
12. I Beg Of You (Takes 6,8)
13. Peace In The Valley (Take 7)
14. Have I Told You Lately That I Love You (Takes 12,13)
15. I Beg Of You (Take 12)
16. I Believe (Take 4) [Bonus Mono Track]
17. Tell Me Why (Take 5) [Bonus Mono Track]
18. Got A Lot O' Livin' To Do! (Take 9) [Bonus Mono Track]
19. All Shook Up (Take 10) [Bonus Mono Track]
20. Take My Hand, Precious Lord (Take 14) [Bonus Mono Track]

foobar2000 1.2.9 / Dynamic Range Meter 1.1.1

––––––––––––––––––––––––––––––––––––––––
Analyzed: Elvis Presley / Stereo '57 (Essential Elvis Volume 2)
––––––––––––––––––––––––––––––––––––––––

DR Peak RMS Duration Track
––––––––––––––––––––––––––––––––––––––––
DR15 -6.09 dB -25.21 dB 2:12 01-I Beg Of You (Take 1)
DR15 -8.17 dB -27.52 dB 2:37 02-Is It So Strange (Take 1)
DR14 -6.16 dB -26.06 dB 1:59 03-Have I Told You Lately That I Love (Take 2)
DR14 -9.28 dB -29.17 dB 6:12 04-It Is No Secret (What God Can Do) (Takes 1,2,3)
DR13 -10.78 dB -26.48 dB 3:06 05-Blueberry Hill (Take 2)
DR15 -7.24 dB -25.24 dB 2:21 06-Mean Woman Blues (Take 14)
DR15 -11.75 dB -30.60 dB 4:03 07-There'll Be Peace In The Valley (Takes 2,3)
DR14 -6.15 dB -26.13 dB 1:57 08-Have I Told You Lately I Love You (Take 6)
DR13 -11.81 dB -28.13 dB 2:47 09-Blueberry Hill (Take 7)
DR14 -11.98 dB -31.38 dB 4:14 10-That's When Your Heartaches Begin (Takes 4,5,6)
DR14 -10.65 dB -29.63 dB 4:15 11-Is It So Strange (Takes 7,11)
DR15 -7.56 dB -25.62 dB 2:51 12-I Beg Of You (Takes 6,8)
DR14 -10.07 dB -30.17 dB 3:42 13-Peace In The Valley (Take 7)
DR14 -7.92 dB -28.00 dB 3:33 14-Have I Told You Lately That I Love You (Takes 12,13)
DR14 -8.24 dB -25.56 dB 2:03 15-I Beg Of You (Take 12)
DR10 -11.19 dB -25.81 dB 2:08 16-I Believe (Take 4)
DR12 -9.93 dB -25.48 dB 2:12 17-Tell Me Why (Take 5)
DR11 -8.69 dB -21.87 dB 2:38 18-Got A Lot O' Livin' To Do! (Take 9)
DR14 -7.80 dB -23.71 dB 2:02 19-All Shook Up (Take 10)
DR13 -12.32 dB -29.29 dB 3:22 20-Take My Hand, Precious Lord (Take 14)
––––––––––––––––––––––––––––––––––––––––

Number of tracks: 20
Official DR value: DR14

Samplerate: 2822400 Hz / PCM Samplerate: 88200 Hz
Channels: 2
Bits per sample: 24
Bitrate: 5645 kbps
Codec: DSD64


Thanks to PS³SACD!
Uncompressed SACD ISO size > 2,41 GB
>