Tags
Language
Tags
June 2024
Su Mo Tu We Th Fr Sa
26 27 28 29 30 31 1
2 3 4 5 6 7 8
9 10 11 12 13 14 15
16 17 18 19 20 21 22
23 24 25 26 27 28 29
30 1 2 3 4 5 6

Emanuel Abbühl, David Tomàs, Carla Sanfelix, Miklós Spányi & Benoît Fallai - François Couperin: Concerts (2024) [24/96]

Posted By: delpotro
Emanuel Abbühl, David Tomàs, Carla Sanfelix, Miklós Spányi & Benoît Fallai - François Couperin: Concerts (2024) [24/96]

Emanuel Abbühl, David Tomàs, Carla Sanfelix, Miklós Spányi & Benoît Fallai - François Couperin: Concerts (2024)
FLAC (tracks) 24-bit/96 kHz | Front Cover & Digital Booklet | Time - 77:21 minutes | 1,44 GB
Classical | Label: Genuin, Official Digital Download

The most beautiful concertos by François Couperin for oboe, oboe d'amore, cor anglais and basso continuo.

François Couperin, one of the most significant and important composers of French Baroque music, composed fourteen concertos between 1714 and 1724, known as "Concerts Royaux" and "Les Goûts-réunis, ou Nouveaux Concerts." The fantastic oboist Emanuel Abbühl has selected five of these for his new GENUIN CD. For his album, he takes advantage of the composer's decision to allow performers the freedom to choose whether the main voice should be played with harpsichord, oboe, violin, flute, or bassoon. Abbühl collaborates with fellow musicians David Tomàs (bassoon), Carla Sanfelix (Baroque cello), Miklós Spányi (harpsichord), and Benoît Fallai (theorbo), combining modern and historical instruments with the utmost respect for style, colors, and tempi: truly ear-opening!

Emanuel Abbühl, oboe
Benoît Fallai, lute, theorbo, guitar
Carla Sanfelix, baroque cello
Miklós Spányi, harpsichord
David Tomàs, bassoon

Tracklist:
1. Couperin: Les Goûts-réunis, ou Nouveaux Concerts - Neuvième Concert intitulé Ritratto dell’ amore: I. Le charme (gracieusement et gravement) (1:31)
2. Couperin: Les Goûts-réunis, ou Nouveaux Concerts - Neuvième Concert intitulé Ritratto dell’ amore: II. L’enjoüement (gayement) (2:59)
3. Couperin: Les Goûts-réunis, ou Nouveaux Concerts - Neuvième Concert intitulé Ritratto dell’ amore: III. Les graces Courante (françoise) (2:12)
4. Couperin: Les Goûts-réunis, ou Nouveaux Concerts - Neuvième Concert intitulé Ritratto dell’ amore: IV. Le je-ne-scay-quoy (gayement) (2:02)
5. Couperin: Les Goûts-réunis, ou Nouveaux Concerts - Neuvième Concert intitulé Ritratto dell’ amore: V. La vivacité (2:51)
6. Couperin: Les Goûts-réunis, ou Nouveaux Concerts - Neuvième Concert intitulé Ritratto dell’ amore: VI. La noble fierté - Sarabande (gravement) (2:50)
7. Couperin: Les Goûts-réunis, ou Nouveaux Concerts - Neuvième Concert intitulé Ritratto dell’ amore: VII. La douceur (amoureusement) (2:34)
8. Couperin: Les Goûts-réunis, ou Nouveaux Concerts - Neuvième Concert intitulé Ritratto dell’ amore: VIII. L’et coetera, ou Menuets (3:39)
9. Couperin: Concerts Royaux - Deuxième Concert: I. Prélude (gracieusement) (2:42)
10. Couperin: Concerts Royaux - Deuxième Concert: II. Allemande Fuguée (gayement) (1:59)
11. Couperin: Concerts Royaux - Deuxième Concert: III. Air tendre (3:22)
12. Couperin: Concerts Royaux - Deuxième Concert: IV. Air Contrefugué (vivement) (2:42)
13. Couperin: Concerts Royaux - Deuxième Concert: V. Échos (tendrement) (3:30)
14. Couperin: Les Goûts-réunis, ou Nouveaux Concerts - Sixième Concert: I. Gravement et mesure (2:01)
15. Couperin: Les Goûts-réunis, ou Nouveaux Concerts - Sixième Concert: II. Allemande (vivement) (2:26)
16. Couperin: Les Goûts-réunis, ou Nouveaux Concerts - Sixième Concert: III. Sarabande (noblement) (3:26)
17. Couperin: Les Goûts-réunis, ou Nouveaux Concerts - Sixième Concert: IV. Air de diable (très viste) (1:43)
18. Couperin: Les Goûts-réunis, ou Nouveaux Concerts - Sixième Concert: V. Siciliène (tendrement et loûré) (3:10)
19. Couperin: Les Goûts-réunis, ou Nouveaux Concerts - Cinquième Concert: I. Prélude (gracieusement) (1:35)
20. Couperin: Les Goûts-réunis, ou Nouveaux Concerts - Cinquième Concert: II. Allemande (gayement et les croches égales) (3:06)
21. Couperin: Les Goûts-réunis, ou Nouveaux Concerts - Cinquième Concert: III. Sarabande (grave) (2:43)
22. Couperin: Les Goûts-réunis, ou Nouveaux Concerts - Cinquième Concert: IV. Gavote (coulament) (2:00)
23. Couperin: Les Goûts-réunis, ou Nouveaux Concerts - Cinquième Concert: V. Muséte dans le goût de Carillon - Rondeau (2:45)
24. Couperin: Concerts Royaux - Quatrième Concert: I. Prélude (gravement) (2:52)
25. Couperin: Concerts Royaux - Quatrième Concert: II. Allemande (légèrement) (2:12)
26. Couperin: Concerts Royaux - Quatrième Concert: III. Courante Françoise (galament) (1:59)
27. Couperin: Concerts Royaux - Quatrième Concert: IV. Courante a l’italienne (gayement) (2:42)
28. Couperin: Concerts Royaux - Quatrième Concert: V. Sarabande (très tendrement) (2:43)
29. Couperin: Concerts Royaux - Quatrième Concert: VI. Rigaudon (légèrement et marqué) (2:10)
30. Couperin: Concerts Royaux - Quatrième Concert: VII. Forlane - Rondeau (gayement) (2:57)

foobar2000 1.4.1 / Dynamic Range Meter 1.1.1
log date: 2024-04-04 19:43:31

––––––––––––––––––––––––––––––––––––––––
Analyzed: Emanuel Abbühl / Couperin: Concerts
––––––––––––––––––––––––––––––––––––––––

DR Peak RMS Duration Track
––––––––––––––––––––––––––––––––––––––––
DR10 -6.57 dB -21.05 dB 1:31 01-Les goûts-réunis, ou Nouveaux Concerts, Concert No. 9 in E Major "Il ritratto dell'amore": No. 1, Le charme
DR13 -3.15 dB -20.12 dB 2:59 02-Les goûts-réunis, ou Nouveaux Concerts, Concert No. 9 in E Major "Il ritratto dell'amore": No. 2, L'enjoüement
DR11 -5.65 dB -19.74 dB 2:12 03-Les goûts-réunis, ou Nouveaux Concerts, Concert No. 9 in E Major "Il ritratto dell'amore": No. 3, Les graces
DR12 -4.55 dB -20.33 dB 2:02 04-Les goûts-réunis, ou Nouveaux Concerts, Concert No. 9 in E Major "Il ritratto dell'amore": No. 4, Le je-ne-scay-quoy
DR12 -4.45 dB -19.54 dB 2:51 05-Les goûts-réunis, ou Nouveaux Concerts, Concert No. 9 in E Major "Il ritratto dell'amore": No. 5, La vivacité
DR11 -8.59 dB -23.21 dB 2:50 06-Les goûts-réunis, ou Nouveaux Concerts, Concert No. 9 in E Major "Il ritratto dell'amore": No. 6, La noble fierté
DR11 -8.22 dB -22.93 dB 2:34 07-Les goûts-réunis, ou Nouveaux Concerts, Concert No. 9 in E Major "Il ritratto dell'amore": No. 7, La douceur
DR12 -3.03 dB -19.39 dB 3:39 08-Les goûts-réunis, ou Nouveaux Concerts, Concert No. 9 in E Major "Il ritratto dell'amore": No. 8, L'et cӕtera, ou menuets
DR11 -2.59 dB -18.92 dB 2:41 09-Concerts royaux, Concerto No. 2 in D Major: I. Prélude
DR12 -3.91 dB -20.41 dB 1:59 10-Concerts royaux, Concerto No. 2 in D Major: II. Allemande fuguée
DR12 -4.37 dB -23.10 dB 3:22 11-Concerts royaux, Concerto No. 2 in D Major: III. Air tendre
DR13 -2.40 dB -18.34 dB 2:42 12-Concerts royaux, Concerto No. 2 in D Major: IV. Air contrefugué
DR12 -6.63 dB -22.75 dB 3:30 13-Concerts royaux, Concerto No. 2 in D Major: V. Échos
DR11 -5.11 dB -20.23 dB 2:01 14-Les goûts-réunis, ou Nouveaux Concerts, Concert No. 6 in B-Flat Major: No. 1, Gravement et mesure
DR12 -4.67 dB -19.70 dB 2:26 15-Les goûts-réunis, ou Nouveaux Concerts, Concert No. 6 in B-Flat Major: No. 2, Allemande
DR13 -5.59 dB -24.08 dB 3:26 16-Les goûts-réunis, ou Nouveaux Concerts, Concert No. 6 in B-Flat Major: No. 3, Sarabande
DR14 -1.01 dB -19.07 dB 1:43 17-Les goûts-réunis, ou Nouveaux Concerts, Concert No. 6 in B-Flat Major: No. 4, Air de diable
DR12 -4.59 dB -20.80 dB 3:10 18-Les goûts-réunis, ou Nouveaux Concerts, Concert No. 6 in B-Flat Major: No. 5, Siciliéne
DR12 -2.97 dB -18.47 dB 1:35 19-Les goûts-réunis, ou Nouveaux Concerts, Concert No. 5 in F Major: No. 1, Prelude
DR12 -3.29 dB -18.96 dB 3:06 20-Les goûts-réunis, ou Nouveaux Concerts, Concert No. 5 in F Major: No. 2, Allemande
DR11 -8.82 dB -22.77 dB 2:43 21-Les goûts-réunis, ou Nouveaux Concerts, Concert No. 5 in F Major: No. 3, Sarabande
DR12 -6.47 dB -21.62 dB 2:00 22-Les goûts-réunis, ou Nouveaux Concerts, Concert No. 5 in F Major: No. 4, Gavote
DR11 -1.71 dB -18.27 dB 2:45 23-Les goûts-réunis, ou Nouveaux Concerts, Concert No. 5 in F Major: No. 5, Muséte
DR12 -5.84 dB -21.84 dB 2:52 24-Concerts royaux, Concerto No. 4 in E Minor: I. Prélude
DR13 -2.30 dB -20.72 dB 2:12 25-Concerts royaux, Concerto No. 4 in E Minor: II. Allemande
DR12 -4.28 dB -19.79 dB 1:59 26-Concerts royaux, Concerto No. 4 in E Minor: III. Courante française
DR13 -3.98 dB -20.13 dB 2:42 27-Concerts royaux, Concerto No. 4 in E Minor: IV. Courante à l'italienne
DR12 -7.93 dB -23.99 dB 2:43 28-Concerts royaux, Concerto No. 4 in E Minor: V. Sarabande
DR13 -4.60 dB -22.82 dB 2:10 29-Concerts royaux, Concerto No. 4 in E Minor: VI. Rigaudon
DR14 -3.46 dB -22.13 dB 2:57 30-Concerts royaux, Concerto No. 4 in E Minor: VII. Forlane
––––––––––––––––––––––––––––––––––––––––

Number of tracks: 30
Official DR value: DR12

Samplerate: 96000 Hz
Channels: 2
Bits per sample: 24
Bitrate: 2660 kbps
Codec: FLAC
================================================================================


Thanks to the Original customer!