Tags
Language
Tags

Fred Hersch - Personal Favorites (2006) MCH SACD ISO + DSD64 + Hi-Res FLAC

Posted By:
Fred Hersch - Personal Favorites (2006) MCH SACD ISO + DSD64 + Hi-Res FLAC

Fred Hersch - Personal Favorites (2006)
SACD Rip | SACD ISO | DST64 2.0 & 5.0 > 1-bit/2.8224 MHz | 65:02 minutes | Scans included | 2,94 GB
or DSD64 2.0 Stereo (from SACD-ISO to Tracks.dsf) > 1-bit/2.8224 MHz | Full Scans included | 1,25 GB
or FLAC 2.0 (carefully converted & encoded to tracks) 24bit/88,2 kHz | Full Scans included | 1,26 GB
Features Stereo and Quadrophonic Surround Sound | Label: Chesky Records # SACD 324

Fred Hersch is an American jazz pianist and educator. He has performed solo and led his own groups, including the Pocket Orchestra consisting of piano, trumpet, voice, and percussion. He was the first person to play weeklong engagements as a solo pianist at the Village Vanguard in New York City. He has recorded more than 70 of his jazz compositions. Hersch has been nominated for several Grammy Awards. This compilation of celebrated pianist's best-loved recordings for Chesky culls material from three discs-1991's Forward Motion, 1993's Dancing in the Dark and 1994's The Fred Hersch Trio Plays.

Pianist and composer Fred Hersch has been called a "one of the small handful of brilliant musicians of his generation" by Down Beat magazine and has earned a place among the foremost jazz artists in the world today. From the late 70's onward as a sideman to jazz legends including Joe Henderson, Art Farmer and Stan Getz, he has solidified a reputation as a versatile master of jazz piano, as well as a relentlessly probing composer and conceptualist. He is widely recognized for his ability to steadfastly create a unique body of original works while reinventing the standard jazz repertoire - investing time-tested classics with keen insight, fresh ideas and extraordinary technique. Whether unaccompanied, in duo, working with trios and quintets, Hersch has explored the jazz tradition to its fullest even as he opens new and undiscovered doors. Hersch's numerous accomplishments include a 2003 Guggenheim Memorial Fellowship for composition, two Grammy nominations for Best Jazz Instrumental Performance and a Grammy nomination for Best Instrumental Composition. He has appeared on over one hundred recordings, including more than two-dozen albums as bandleader/solo pianist.

Tracklist:

01. Once I Had a Secret Love
02. Played Twice
03. For All We Know
04. Child's Song
05. Evanessence
06. I Fall In Love Too Easily
07. Professor K
08. Forward Motion
09. Iris
10. Nostalgia
11. Out of Nowhere
12. If I Should Lose You

Personnel
Fred Hersch - Piano
Rich Perry - Tenor Saxophone
Erik Friedlander - Cello (4, 7, 8, 10)
Drew Gress - Bass (1-3, 5, 6, 9, 11)
Scott Colley - Bass (4, 7, 8, 10)
Tom Rainey - Drums

Produced by Fred Hersch & David Chesky.
Engineered by Bob Katz.
Edited & Mastered by Nicholas Prout.

foobar2000 1.6.7 / Dynamic Range Meter 1.1.1

––––––––––––––––––––––––––––––––––––––––
Analyzed: Fred Hersch / Personal Favorites
––––––––––––––––––––––––––––––––––––––––

DR Peak RMS Duration Track
––––––––––––––––––––––––––––––––––––––––
DR11 -8.13 dB -31.70 dB 5:46 01-Once I Had a Secret Love
DR12 -8.23 dB -31.27 dB 3:25 02-Played Twice
DR11 -6.54 dB -29.75 dB 7:13 03-For All We Know
DR11 -12.93 dB -34.34 dB 6:22 04-Child's Song
DR12 -6.74 dB -32.29 dB 5:12 05-Evanessence
DR11 -7.53 dB -32.22 dB 5:36 06-I Fall In Love Too Easily
DR11 -8.17 dB -31.44 dB 5:26 07-Professor K
DR12 -5.93 dB -29.51 dB 3:56 08-Forward Motion
DR12 -6.24 dB -35.18 dB 6:17 09-Iris
DR12 -6.14 dB -32.25 dB 5:38 10-Nostalgia
DR11 -11.36 dB -35.06 dB 5:06 11-Out of Nowhere
DR11 -9.55 dB -34.37 dB 5:05 12-If I Should Lose You
––––––––––––––––––––––––––––––––––––––––

Number of tracks: 12
Official DR value: DR11

Samplerate: 2822400 Hz / PCM Samplerate: 176400 Hz
Channels: 5
Bits per sample: 1
Bitrate: 14112 kbps
Codec: DST64
================================================================================

––––––––––––––––––––––––––––––––––––––––
Analyzed: Fred Hersch / Personal Favorites
––––––––––––––––––––––––––––––––––––––––

DR Peak RMS Duration Track
––––––––––––––––––––––––––––––––––––––––
DR14 -8.13 dB -28.02 dB 5:46 01-Once I Had a Secret Love
DR16 -8.23 dB -27.76 dB 3:25 02-Played Twice
DR14 -6.54 dB -26.04 dB 7:13 03-For All We Know
DR13 -12.93 dB -30.99 dB 6:22 04-Child's Song
DR15 -6.74 dB -28.81 dB 5:12 05-Evanessence
DR14 -7.53 dB -28.63 dB 5:36 06-I Fall In Love Too Easily
DR15 -8.17 dB -27.91 dB 5:26 07-Professor K
DR16 -5.93 dB -25.95 dB 3:56 08-Forward Motion
DR17 -6.24 dB -31.83 dB 6:17 09-Iris
DR16 -6.14 dB -28.77 dB 5:38 10-Nostalgia
DR15 -11.36 dB -31.63 dB 5:06 11-Out of Nowhere
DR15 -9.55 dB -30.88 dB 5:05 12-If I Should Lose You
––––––––––––––––––––––––––––––––––––––––

Number of tracks: 12
Official DR value: DR15

Samplerate: 2822400 Hz / PCM Samplerate: 176400 Hz
Channels: 2
Bits per sample: 1
Bitrate: 5645 kbps
Codec: DST64


Thanks to jazzyman!
Uncompressed SACD ISO size > 2,79 GB
>