Freddie Hubbard - Hub Cap (1961) [APO Remaster 2011] SACD ISO + Hi-Res FLAC

Posted By: HDAtall
Freddie Hubbard - Hub Cap (1961) [APO Remaster 2011] SACD ISO + Hi-Res FLAC

Freddie Hubbard - Hub Cap (1961) [Analogue Productions, Remaster 2011]
SACD Rip | SACD ISO | DSD64 2.0 > 1-bit/2.8224 MHz | 51:25 minutes | Front/Rear Covers | 1,52 GB
or FLAC(converted with foobar2000 to tracks) 24bit/88,2 kHz | Front/Rear Covers | 1,09 GB

On Hub Cap, his third effort as a leader, Freddie Hubbard sticks to the tried-and-true hard bop formula, which is something of a mixed blessing. There's no question that much of this music is enjoyable, but it's not quite up to the standards of its two predecessors. Part of the problem is Hubbard's sextet, which features tenor saxophonist Jimmy Heath, trombonist Julian Priester, pianist Cedar Walton, bassist Larry Ridley, and drummer "Philly" Joe Jones. All of the musicians are talented, but only a few are inventive, and that becomes a problem, since it becomes clear that Hubbard is beginning to break free from his influences and develop his own style. In other words, he's capable of more adventurous music than this straight-ahead hard bop. That said, Hub Cap is a very good hard bop date. There is energy to the performances, and the artist's vigorous, inspired playing continues to impress, as do some of his original compositions. Only when compared to Hubbard's first two records, or what would come later, does Hub Cap seem like a lesser effort.

Tracklist:

01. Hub Cap
02. Cry Me Not
03. Luana
04. Osie Mae
05. Plexus
06. Earmon Jr.
07. Plexus (Alternate Take)

Recorded on April 9, 1961 at Van Gelder Studio, Englewood Cliffs, New Jersey.
Mastered for this SACD by Kevin Gray & Steve Hoffman at AcousTech Mastering, CA.

Personnel
Freddie Hubbard - trumpet
Julian Priester - trombone
Jimmy Heath - tenor saxophone
Cedar Walton - piano
Larry Ridley - bass
Philly Joe Jones - drums

foobar2000 1.3.17 / Dynamic Range Meter 1.1.1

––––––––––––––––––––––––––––––––––––––––
Analyzed: Freddie Hubbard / Hub Cap
––––––––––––––––––––––––––––––––––––––––

DR Peak RMS Duration Track
––––––––––––––––––––––––––––––––––––––––
DR13 -5.88 dB -24.00 dB 5:16 01-Hub Cap
DR13 -8.35 dB -26.56 dB 4:48 02-Cry Me Not
DR12 -5.81 dB -23.63 dB 10:05 03-Luana
DR12 -6.20 dB -23.21 dB 6:53 04-Osie Mae
DR12 -4.73 dB -22.01 dB 9:02 05-Plexus
DR13 -6.50 dB -24.21 dB 6:19 06-Earmon Jr.
DR12 -5.72 dB -21.75 dB 9:12 07-Plexus (Alternate Take)
––––––––––––––––––––––––––––––––––––––––

Number of tracks: 7
Official DR value: DR12

Samplerate: 2822400 Hz / PCM Samplerate: 88200 Hz
Channels: 2
Bits per sample: 1
Bitrate: 5645 kbps
Codec: DSD64


Thanks to jazzyman!
Uncompressed SACD ISO size > 2,07 GB