Tags
Language
Tags

György Vashegyi, Orfeo Orchestra - Boismortier: Les voyages de l'Amour, Op. 60 (2020) [Official Digital Download]

Posted By: El Misha
György Vashegyi, Orfeo Orchestra - Boismortier: Les voyages de l'Amour, Op. 60 (2020) [Official Digital Download]

György Vashegyi, Orfeo Orchestra - Boismortier: Les voyages de l'Amour, Op. 60 (2020)
FLAC (tracks) 24-bit/48 kHz | Time - 02:37:34 | 1.64 GB
Studio Master, Official Digital Download | Artwork: Front cover+digital booklet

György Vashegyi and his Orfeo Orchestra and Purcell Choir offer up a recording of Boismortier’s Les Voyages de l’Amour of which this 1736 opéra-ballet has been in sore need, a score long and unjustly neglected. For this latest dramatic extravaganza on Glossa, Chantal Santon-Jeffery takes on the title role of lovesick Cupid, and the soprano is joined by two further widely experienced stars of the French Baroque opera revival in Katherine Watson (as the god of love’s sidekick and factotum Zéphire) and Judith van Wanroij as the shepherdess Daphné, smartly resistant to the god’s charms (until the end of the fourth act).
By 1736, Joseph Bodin de Boismortier had become well-known in Parisian musical circles for his entertaining instrumental and vocal music and in his booklet essay Benoît Dratwicki (of the Centre de Musique Baroque de Versailles) explains how this fashionable composer came to have his first production for the Paris Opéra cast into the shadows, how the roles for Cupid and Zéphire may have originally been written for two prominent dessus of the time but were replaced by male singers for the première and how this new recorded edition aims to provide a performance as the composer would have wanted it.
Katia Velletaz, Éléonore Pancrazi and Thomas Dolié also contribute to this lively entertainment, with this release also containing two differing versions of the second act about the arrow-firing god of love’s travels through village, city and court in search of true love for himself. © Glossa



Tracklist:

001. Ouverture
002. Triomphe, Amour, comble nos voeux
003. Air pour la suite de l'Amour et de Zephire
004. Vous qui servez des inhumaines
005. Premier et deuxieme rigaudon pour la suite de l'Amour et de Zephire
006. Que tout soit enchante
007. Vous a qui deux beaux yeux assurent la victoire
008. Premier et deuxieme menuet pour les memes
009. Chantez, formez toujours le concert le plus tendre
010. Les dieux et les mortels, heureux par ta puissance
011. Par des traits surs de la victoire
012. Bannis une crainte si vaine
013. Partons, abandonnons Cythere
014. Partez, volez a la victoire
015. Ouverture (Reprise)
016. Que je me plais dans ce sejour!
017. Amour, dans ces lieux charmants
018. Les tendres oiseaux dans ces champs
019. Toi qui fais leurs plaisirs, vas-tu les partager
020. Du trouble qui l'agite, etonnee, incertaine
021. Dieu seducteur, malgre tes peines
022. Daphne doit dans ces lieux venir avant la fete
023. Mais je la vois, moments de transports amoureux
024. Un prix est dans ce jour propose par Cypris
025. Tournez sur moi ces yeux qui vous rendent si belle
026. Vous vous plaignez toujours ! Quand l'Amour nous entraine
027. La paisible indifference
028. Non, l'Amour n'est point redoutable
029. On vient, chacun s'apprete
030. Marche pour l'entree des bergers et bergeres
031. Pour nous faire chanter les attraits de son fils
032. Air et pour meriter les dons de l'immortelle
033. Si nous voyons dans ce sejour
034. Rondeau pour les bergers et bergeres
035. Charmant vainqueur, aimable maitre
036. Bergers, quelqu'un veut-il encor se faire entendre
037. Berger, jouissez de la gloire (1)
038. Premier et deuxieme tambourin pour les bergers et bergeres
039. Berger, jouissez de la gloire (2)
040. Air en rondeau pour l'entracte
041. Cruel Amour, rends-moi le coeur d'une infidele
042. Alcidon vient, fuyons
043. Devais-je m'attendre qu'un jour
044. Par un reproche temeraire
045. Etes-vous insensible a ma douleur pressante
046. L'objet a qui l'Amour doit rendre ici les armes [1]
047. J'aurais brule pour vous d'une ardeur eternelle
048. On vient, calmez des feux
049. L'eclat de la grandeur supreme
050. Marche pour les tyriens et tyriennes
051. L'objet a qui l'Amour doit rendre ici les armes [2]
052. Passacaille pour les tyriens et tyriennes
053. Air et quels plaisirs l'Amour nous procure!
054. Premier et deuxieme air pour les tyriens et tyriennes
055. Accourez, rassemblez-vous
056. Les rois, les jeux regnent dans ce sejour
057. Air pour les tyriens et tyriennes
058. Ou courez-vous
059. Lorsque vous me juriez les feux les plus constants
060. Vous faites sur mon coeur des efforts superflus
061. Eh bien ! Je brise votre chaine
062. Symphonie pour la descente de l'Amour
063. Mon coeur aurait ete le prix de la constance
064. Pour apprendre de vous
065. Bientot nous connaitrons Lucile
066. Elle croit recevoir d'un inconnu qui l'aime
067. La constance qui chancelle
068. Lucile vient, quittons ces lieux
069. Pourquoi rougir d'etre volage
070. En vain je veux bannir Alcidon de mon ame
071. O dieux! Si je suis infidele
072. Confident du destin
073. Symphonie pour l'arrivee des genies elementaires
074. Caprice pour les genies elementaires
075. Disparaissez, voiles impenetrables
076. Prelude
077. Quel triomphe ! Dieux ! Quelle gloire !
078. Quels doux concerts ! Quels sons harmonieux !
079. Premier air en rondeau pour l'entree de la suite de l'Amour
080. Portez la chaine la plus belle
081. Deuxieme air pour la suite de l'Amour
082. Ce n'est pas la peine
083. Ah ! Qu'il soit sur de ma constance
084. Mon bonheur m'amene en ces lieux
085. Cessez d'offrir des voeux
086. Lucile, avouez-vous de si cruels discours
087. Vous embrasez l'Amour de la plus vive flamme [1]
088. Voila donc d'ou partaient vos mepris inhumains
089. Abandonnez plutot ces injustes desirs
090. Vous embrasez l'Amour de la plus vive flamme [2]
091. C'en est donc fait, cruelle, et vous ne m'aimez plus
092. C'est l'Amour qui m'echappe!
093. Prelude
094. Mes feux sont ecoutes, la princesse que j'aime
095. Julie en apparence a rejete les voeux
096. Sans cesse ton coeur s'applaudit
097. Un inconstant, aupres de l'objet qui l'engage
098. Un inconstant partout doit se faire hair
099. On prepare en ces lieux une fete brillante
100. Use bien de ma confiance
101. Mon bonheur serait imparfait
102. Mais la fete va commencer
103. Marche en rondeau pour l'entree des masques
104. Regne, Amour, enchante nos ames
105. L'erreur de nos deguisements
106. Suivons l'Amour et la folie
107. Contredanse pour les memes
108. De l'Amour chantons la gloire
109. Dans ces lieux eloignes d'une foule indiscrete
110. Ah ! Quelqu'un vient, fuyons
111. C'en est assez, laissons Daphne dans ce palais
112. Doux sommeil, qui suspends les maux des miserables
113. Quel songe seduisant s'offrait a ma pensee
114. Termine pour jamais une cruelle absence
115. Silvandre, dites-vous Apres son inconstance !
116. Si l'inconstant a l'ardeur qui m'engage
117. Etouffez desormais les vains transports
118. Celebrons les amours d'un fidele berger
119. Arretez ! Vous donnez au plus volage amant
120. C'en est trop, charmante bergere
121. Celebrez la beaute pour qui mon coeur soupire
122. Volez, tendres plaisirs, venez nous rendre heureux
123. Premier et deuxieme menuet pour les jeux et plaisirs
124. Air en rondeau pour les memes
125. Triomphez de mon coeur, cette aimable victoire
126. Tambourin pour les jeux et plaisirs
127. Sarabande pour les memes
128. Vole hymen, reviens a Cythere (1)
129. Dans une chaine mutuelle
130. Vole hymen, reviens a Cythere (2)

foobar2000 1.4 / Dynamic Range Meter 1.1.1
log date: 2022-01-17 07:57:03

––––––––––––––––––––––––––––––––––––––––
Analyzed: Chantal Santon-Jeffery / Boismortier: Les voyages de l'Amour, Op. 60 (1-13)
Éléonore Pancrazi / Boismortier: Les voyages de l'Amour, Op. 60 (14)
Judith van Wanroij / Boismortier: Les voyages de l'Amour, Op. 60 (15-17)
Katherine Watson / Boismortier: Les voyages de l'Amour, Op. 60 (18-27)
Katia Velletaz / Boismortier: Les voyages de l'Amour, Op. 60 (28-32)
Orfeo Orchestra / Boismortier: Les voyages de l'Amour, Op. 60 (33-46)
Purcell Choir / Boismortier: Les voyages de l'Amour, Op. 60 (47-50)
Thomas Dolié / Boismortier: Les voyages de l'Amour, Op. 60 (51-63)
––––––––––––––––––––––––––––––––––––––––

DR Peak RMS Duration Track
––––––––––––––––––––––––––––––––––––––––
DR12 -5.02 dB -22.28 dB 2:04 09-Chantez, formez toujours le concert le plus tendre
DR11 -3.63 dB -19.73 dB 0:34 11-Par des traits sûrs de la victoire
DR13 -4.12 dB -20.72 dB 1:23 13-Partons, abandonnons Cythère
DR12 -4.90 dB -22.94 dB 2:32 16-Que je me plais dans ce séjour!
DR12 -3.70 dB -22.07 dB 0:34 20-Du trouble qui l'agite, étonnée, incertaine
DR13 -4.67 dB -23.15 dB 2:40 22-Daphné doit dans ces lieux venir avant la fête
DR12 -4.13 dB -20.58 dB 0:33 23-Mais je la vois, moments de transports amoureux
DR13 -4.83 dB -22.90 dB 2:32 24-Un prix est dans ce jour proposé par Cypris
DR12 -5.69 dB -22.76 dB 1:22 25-Tournez sur moi ces yeux qui vous rendent si belle
DR11 -6.60 dB -23.32 dB 0:35 28-Non, l'Amour n'est point redoutable
DR13 -5.93 dB -23.84 dB 2:36 35-Charmant vainqueur, aimable maître
DR13 -5.34 dB -22.47 dB 1:29 44-Par un reproche téméraire
DR12 -4.57 dB -22.08 dB 1:02 63-Mon coeur aurait été le prix de la constance
DR14 -2.04 dB -21.74 dB 1:37 53-Air et quels plaisirs l'Amour nous procure!
DR12 -4.63 dB -22.75 dB 1:14 26-Vous vous plaignez toujours ! Quand l'Amour nous entraîne
DR10 -3.45 dB -17.96 dB 0:58 27-La paisible indifférence
DR12 -6.86 dB -25.29 dB 0:38 29-On vient, chacun s'apprête
DR13 -6.76 dB -24.17 dB 0:59 04-Vous qui servez des inhumaines
DR13 -4.37 dB -22.43 dB 2:30 07-Vous à qui deux beaux yeux assurent la victoire
DR12 -4.84 dB -22.46 dB 0:59 10-Les dieux et les mortels, heureux par ta puissance
DR13 -5.95 dB -23.46 dB 1:02 12-Bannis une crainte si vaine
DR16 -9.10 dB -28.55 dB 0:11 17-Amour, dans ces lieux charmants
DR13 -7.13 dB -24.34 dB 1:19 18-Les tendres oiseaux dans ces champs
DR11 -8.58 dB -24.18 dB 0:35 19-Toi qui fais leurs plaisirs, vas-tu les partager?
DR14 -6.36 dB -25.58 dB 1:44 21-Dieu séducteur, malgré tes peines
DR13 -5.91 dB -23.20 dB 0:41 55-Accourez, rassemblez-vous
DR13 -3.90 dB -22.52 dB 3:13 56-Les rois, les jeux règnent dans ce séjour
DR12 -1.45 dB -18.47 dB 1:09 06-Que tout soit enchanté
DR13 -4.86 dB -22.28 dB 1:42 33-Si nous voyons dans ce séjour
DR13 -5.24 dB -23.55 dB 0:41 46-L'objet à qui l'Amour doit rendre ici les armes [1]
DR12 -3.50 dB -22.74 dB 0:23 48-On vient, calmez des feux
DR10 -5.10 dB -22.96 dB 0:12 60-Vous faites sur mon coeur des efforts superflus
DR12 -9.09 dB -22.86 dB 2:16 01-Ouverture
DR12 -11.64 dB -26.97 dB 1:03 03-Air pour la suite de l'Amour et de Zéphire
DR15 -5.11 dB -25.47 dB 1:09 05-Premier et deuxième rigaudon pour la suite de l'Amour et de Zéphire
DR11 -13.70 dB -28.04 dB 1:34 08-Premier et deuxième menuet pour les mêmes
DR12 -10.93 dB -25.29 dB 1:53 15-Ouverture (Reprise)
DR14 -4.57 dB -22.60 dB 0:59 30-Marche pour l'entrée des bergers et bergères
DR11 -12.57 dB -28.08 dB 2:17 34-Rondeau pour les bergers et bergères
DR14 -1.73 dB -21.71 dB 1:04 38-Premier et deuxième tambourin pour les bergers et bergères
DR11 -12.19 dB -27.26 dB 1:36 40-Air en rondeau pour l'entracte
DR12 -9.75 dB -23.77 dB 0:41 50-Marche pour les tyriens et tyriennes
DR12 -10.74 dB -25.33 dB 2:02 52-Passacaille pour les tyriens et tyriennes
DR12 -11.24 dB -26.73 dB 1:13 54-Premier et deuxième air pour les tyriens et tyriennes
DR15 -8.47 dB -25.66 dB 0:41 57-Air pour les tyriens et tyriennes
DR12 -10.09 dB -24.39 dB 0:17 62-Symphonie pour la descente de l'Amour
DR13 -1.47 dB -18.90 dB 2:13 02-Triomphe, Amour, comble nos voeux
DR12 -1.38 dB -18.94 dB 1:56 14-Partez, volez à la victoire
DR12 -1.41 dB -18.27 dB 1:16 39-Berger, jouissez de la gloire (2)
DR11 -1.24 dB -16.92 dB 1:08 51-L'objet à qui l'Amour doit rendre ici les armes [2]
DR11 -8.38 dB -25.21 dB 0:14 31-Pour nous faire chanter les attraits de son fils
DR12 -1.10 dB -17.13 dB 1:28 32-Air et pour mériter les dons de l'immortelle
DR12 -5.26 dB -20.68 dB 0:22 36-Bergers, quelqu'un veut-il encor se faire entendre
DR13 -1.35 dB -18.86 dB 1:43 37-Berger, jouissez de la gloire (1)
DR12 -6.20 dB -22.98 dB 1:27 41-Cruel Amour, rends-moi le coeur d'une infidèle
DR15 -3.96 dB -23.87 dB 2:18 42-Alcidon vient, fuyons
DR12 -5.76 dB -22.46 dB 0:34 43-Devais-je m'attendre qu'un jour
DR14 -3.86 dB -23.15 dB 1:56 45-Êtes-vous insensible à ma douleur pressante?
DR13 -5.11 dB -23.37 dB 0:28 47-J'aurais brûlé pour vous d'une ardeur éternelle
DR13 -3.81 dB -23.17 dB 1:02 49-L'éclat de la grandeur suprême
DR13 -2.85 dB -20.94 dB 0:20 58-Où courez-vous?
DR13 -5.73 dB -22.26 dB 0:38 59-Lorsque vous me juriez les feux les plus constants
DR14 -3.66 dB -22.40 dB 0:31 61-Eh bien ! Je brise votre chaîne
––––––––––––––––––––––––––––––––––––––––

Number of tracks: 63
Official DR value: DR13

Samplerate: 48000 Hz
Channels: 2
Bits per sample: 24
Bitrate: 1507 kbps
Codec: FLAC
================================================================================



foobar2000 1.4 / Dynamic Range Meter 1.1.1
log date: 2022-01-17 08:00:08

––––––––––––––––––––––––––––––––––––––––
Analyzed: Chantal Santon-Jeffery / Boismortier: Les voyages de l'Amour, Op. 60 (1-17)
Éléonore Pancrazi / Boismortier: Les voyages de l'Amour, Op. 60 (18-25)
Judith van Wanroij / Boismortier: Les voyages de l'Amour, Op. 60 (26-31)
Katherine Watson / Boismortier: Les voyages de l'Amour, Op. 60 (32-35)
Katia Velletaz / Boismortier: Les voyages de l'Amour, Op. 60 (36-40)
Orfeo Orchestra / Boismortier: Les voyages de l'Amour, Op. 60 (41-51)
Purcell Choir / Boismortier: Les voyages de l'Amour, Op. 60 (52-58)
Thomas Dolié / Boismortier: Les voyages de l'Amour, Op. 60 (59-67)
––––––––––––––––––––––––––––––––––––––––

DR Peak RMS Duration Track
––––––––––––––––––––––––––––––––––––––––
DR11 -4.48 dB -20.65 dB 0:44 01-Pour apprendre de vous
DR12 -3.57 dB -21.13 dB 0:55 03-Elle croit recevoir d'un inconnu qui l'aime
DR13 -5.28 dB -21.61 dB 0:12 05-Lucile vient, quittons ces lieux
DR13 -4.39 dB -23.94 dB 1:07 21-Mon bonheur m'amène en ces lieux
DR13 -8.45 dB -24.40 dB 0:28 23-Lucile, avouez-vous de si cruels discours?
DR12 -6.64 dB -24.66 dB 0:29 25-Voilà donc d'où partaient vos mépris inhumains
DR12 -3.57 dB -21.33 dB 1:06 26-Abandonnez plutôt ces injustes désirs
DR11 -3.95 dB -23.06 dB 1:10 28-C'en est donc fait, cruelle, et vous ne m'aimez plus
DR11 -5.30 dB -21.51 dB 0:42 31-Mes feux sont écoutés, la princesse que j'aime
DR13 -4.49 dB -22.05 dB 0:49 32-Julie en apparence a rejeté les voeux
DR12 -5.95 dB -21.91 dB 0:38 33-Sans cesse ton coeur s'applaudit
DR14 -5.31 dB -23.91 dB 1:59 35-Un inconstant partout doit se faire haïr
DR13 -4.86 dB -24.13 dB 1:11 57-C'en est trop, charmante bergère
DR13 -2.18 dB -21.02 dB 0:49 58-Célébrez la beauté pour qui mon coeur soupire
DR11 -5.01 dB -20.64 dB 0:39 62-Triomphez de mon coeur, cette aimable victoire
DR12 -7.24 dB -23.03 dB 0:31 63-Tambourin pour les jeux et plaisirs
DR12 -2.21 dB -20.13 dB 2:34 66-Dans une chaîne mutuelle
DR14 -6.37 dB -25.89 dB 0:46 06-Pourquoi rougir d'être volage?
DR13 -3.70 dB -21.79 dB 1:56 09-Confident du destin
DR13 -6.84 dB -24.06 dB 0:59 14-Quel triomphe ! Dieux ! Quelle gloire !
DR14 -6.77 dB -25.60 dB 0:16 22-Cessez d'offrir des voeux
DR15 -6.25 dB -26.53 dB 0:37 42-L'erreur de nos déguisements
DR14 -5.94 dB -23.81 dB 1:43 43-Suivons l'Amour et la folie
DR12 -4.73 dB -20.92 dB 2:34 45-De l'Amour chantons la gloire
DR14 -2.78 dB -22.10 dB 2:48 47-Ah ! Quelqu'un vient, fuyons
DR12 -6.79 dB -26.10 dB 3:08 49-Doux sommeil, qui suspends les maux des misérables
DR15 -6.23 dB -25.89 dB 1:53 50-Quel songe séduisant s'offrait à ma pensée?
DR12 -8.07 dB -24.64 dB 1:22 51-Termine pour jamais une cruelle absence
DR12 -6.57 dB -22.75 dB 1:05 53-Si l'inconstant à l'ardeur qui m'engage
DR14 -4.95 dB -23.82 dB 2:57 56-Arrêtez ! Vous donnez au plus volage amant
DR11 -3.99 dB -20.77 dB 1:25 59-Volez, tendres plaisirs, venez nous rendre heureux
DR13 -6.26 dB -24.02 dB 0:42 19-Ce n'est pas la peine
DR12 -5.95 dB -24.27 dB 0:45 48-C'en est assez, laissons Daphné dans ce palais
DR14 -4.83 dB -24.11 dB 1:47 52-Silvandre, dites-vous ? Après son inconstance !
DR11 -5.22 dB -22.47 dB 0:41 54-Étouffez désormais les vains transports
DR13 -6.70 dB -26.06 dB 0:54 07-En vain je veux bannir Alcidon de mon âme
DR14 -7.87 dB -26.61 dB 1:20 08-Ô dieux! Si je suis infidèle
DR13 -9.39 dB -28.93 dB 0:28 15-Quels doux concerts ! Quels sons harmonieux !
DR13 -8.36 dB -24.94 dB 0:41 20-Ah ! Qu'il soit sûr de ma constance
DR8 -4.72 dB -27.49 dB 0:28 29-C'est l'Amour qui m'échappe!
DR13 -1.41 dB -20.23 dB 0:50 10-Symphonie pour l'arrivée des génies élémentaires
DR16 -4.77 dB -25.10 dB 4:01 11-Caprice pour les génies élémentaires
DR11 -13.77 dB -26.02 dB 0:09 13-Prélude
DR11 -14.77 dB -29.57 dB 1:08 16-Premier air en rondeau pour l'entrée de la suite de l'Amour
DR11 -14.69 dB -29.30 dB 0:36 18-Deuxième air pour la suite de l'Amour
DR9 -10.72 dB -24.15 dB 0:29 30-Prélude
DR13 -6.90 dB -24.53 dB 1:22 40-Marche en rondeau pour l'entrée des masques
DR12 -2.63 dB -22.16 dB 0:40 44-Contredanse pour les mêmes
DR11 -10.63 dB -25.57 dB 1:18 60-Premier et deuxième menuet pour les jeux et plaisirs
DR11 -12.74 dB -25.59 dB 0:58 61-Air en rondeau pour les mêmes
DR11 -14.87 dB -30.39 dB 0:49 64-Sarabande pour les mêmes
DR13 -5.07 dB -22.52 dB 1:01 17-Portez la chaîne la plus belle
DR12 -4.57 dB -20.30 dB 0:44 24-Vous embrasez l'Amour de la plus vive flamme [1]
DR13 -1.06 dB -18.20 dB 0:42 27-Vous embrasez l'Amour de la plus vive flamme [2]
DR13 -1.12 dB -17.62 dB 1:25 41-Règne, Amour, enchante nos âmes
DR13 -4.02 dB -21.73 dB 1:06 55-Célébrons les amours d'un fidèle berger
DR13 -1.26 dB -18.34 dB 2:09 65-Vole hymen, reviens à Cythère (1)
DR12 -1.44 dB -18.46 dB 1:35 67-Vole hymen, reviens à Cythère (2)
DR12 -7.23 dB -23.45 dB 2:27 02-Bientôt nous connaîtrons Lucile
DR13 -6.66 dB -23.85 dB 0:45 04-La constance qui chancelle
DR14 -0.99 dB -19.26 dB 2:26 12-Disparaissez, voiles impénétrables
DR10 -7.79 dB -23.49 dB 0:41 34-Un inconstant, auprès de l'objet qui l'engage
DR13 -7.16 dB -24.74 dB 0:43 36-On prépare en ces lieux une fête brillante
DR12 -8.31 dB -26.61 dB 0:18 37-Use bien de ma confiance
DR13 -4.96 dB -24.67 dB 1:13 38-Mon bonheur serait imparfait
DR13 -6.40 dB -25.66 dB 0:12 39-Mais la fête va commencer
DR14 -5.31 dB -24.74 dB 1:29 46-Dans ces lieux éloignés d'une foule indiscrète
––––––––––––––––––––––––––––––––––––––––

Number of tracks: 67
Official DR value: DR13

Samplerate: 48000 Hz
Channels: 2
Bits per sample: 24
Bitrate: 1399 kbps
Codec: FLAC
================================================================================



Thanks to the Original customer!