Tags
Language
Tags

Hamish McLaren & Matthew Jorysz - Persian Love Songs (EP) (2021) [Official Digital Download 24/96]

Posted By: delpotro
Hamish McLaren & Matthew Jorysz - Persian Love Songs (EP) (2021) [Official Digital Download 24/96]

Hamish McLaren & Matthew Jorysz - Persian Love Songs (EP) (2021)
FLAC (tracks) 24-bit/96 kHz | Front Cover & Digital Booklet | Time - 15:18 minutes | 257 MB
Classical, Vocal | Label: Orchid Classics, Official Digital Download

Anton Rubinstein wrote his Persian Songs in 1854, while on tour in Germany. The source was a recent collection of poems by Friedrich von Bodenstedt, who advertised them as translations from the work of the Azeri poet Mirza Shafi Vazeh (Mirzə Şəfi Vazeh, 1805-52), with whom he had studied during his travels to the Caucasus. Tchaikovsky was later commissioned to produce a singable Russian translation of the German texts, but he disputed the provenance, maintaining that Bodenstedt, whom he had met, did not know Persian and simply invented the poems (Bodenstedt, as it happens, had by then decided to claim the authorship of these bestselling poems for himself). The 20th century saw a revival of Vazeh’s work, and an examination of the original texts showed that Bodenstedt had indeed translated them, although his versions were much more effusive than Vazeh’s.

Tracklist:
1. 12 Lieder des Mirza-Schaffy, Op. 34 "Persian Songs" (Excerpts): No. 1, Nicht mit Engeln in blauen Himmelszelt (04:44)
2. 12 Lieder des Mirza-Schaffy, Op. 34 "Persian Songs" (Excerpts): No. 2, Mein Herz schmückt sich mit Dir (02:31)
3. 12 Lieder des Mirza-Schaffy, Op. 34 "Persian Songs" (Excerpts): No. 4, Es hat die Rose sich beklagt (02:05)
4. 12 Lieder des Mirza-Schaffy, Op. 34 "Persian Songs" (Excerpts): No. 8, Neig’ schöne Knospe (02:55)
5. 12 Lieder des Mirza-Schaffy, Op. 34 "Persian Songs" (Excerpts): No. 10, Die helle Sonne leuchtet (03:01)

foobar2000 1.4.1 / Dynamic Range Meter 1.1.1
log date: 2021-11-16 18:19:56

––––––––––––––––––––––––––––––––––––––––
Analyzed: Hamish McLaren & Matthew Jorysz / Persian Love Songs
––––––––––––––––––––––––––––––––––––––––

DR Peak RMS Duration Track
––––––––––––––––––––––––––––––––––––––––
DR11 -2.33 dB -20.65 dB 4:45 01-Rubinstein: 12 Lieder des Mirza-Schaffy, Op. 34 "Persian Songs" (Excerpts): No. 1, Nicht mit Engeln in blauen Himmelszelt
DR11 -4.63 dB -20.22 dB 2:31 02-Rubinstein: 12 Lieder des Mirza-Schaffy, Op. 34 "Persian Songs" (Excerpts): No. 2, Mein Herz schmückt sich mit Dir
DR11 -3.77 dB -20.99 dB 2:05 03-Rubinstein: 12 Lieder des Mirza-Schaffy, Op. 34 "Persian Songs" (Excerpts): No. 4, Es hat die Rose sich beklagt
DR10 -1.00 dB -17.59 dB 2:56 04-Rubinstein: 12 Lieder des Mirza-Schaffy, Op. 34 "Persian Songs" (Excerpts): No. 8, Neig’ schöne Knospe
DR12 -1.52 dB -21.11 dB 3:02 05-Rubinstein: 12 Lieder des Mirza-Schaffy, Op. 34 "Persian Songs" (Excerpts): No. 10, Die helle Sonne leuchtet
––––––––––––––––––––––––––––––––––––––––

Number of tracks: 5
Official DR value: DR11

Samplerate: 96000 Hz
Channels: 2
Bits per sample: 24
Bitrate: 2268 kbps
Codec: FLAC
================================================================================


Thanks to the Original customer!