Tags
Language
Tags
February 2024
Su Mo Tu We Th Fr Sa
28 29 30 31 1 2 3
4 5 6 7 8 9 10
11 12 13 14 15 16 17
18 19 20 21 22 23 24
25 26 27 28 29 1 2
Attention❗ To save your time, in order to download anything on this site, you must be registered 👉 HERE. If you do not have a registration yet, it is better to do it right away. ✌

( • )( • ) ( ͡⚆ ͜ʖ ͡⚆ ) (‿ˠ‿)
SpicyMags.xyz

Arne Domnerus - Jazz At The Pawnshop (1976/2006) [30th Anniversary Edition] MCH PS3 ISO + Hi-Res FLAC

Posted By: HDAtall
Arne Domnerus - Jazz At The Pawnshop (1976/2006) [30th Anniversary Edition] MCH PS3 ISO + Hi-Res FLAC

Arne Domnérus - Jazz At The Pawnshop (1976/2006) [30th Anniversary Edition]
(Arne Domnérus, Bengt Hallberg, Lars Erstrand, Georg Riedel, Egil Johansen)

SACD Rip | 3x SACD ISO | DST64 2.0 & 5.0 > 1-bit/2.8224 MHz | 213:04 minutes | Scans included | 10,9 GB
or FLAC 2.0 Stereo (converted with foobar2000 to tracks) 24bit/96 kHz | Full Scans included | 4,88 GB
Features Stereo and Multichannel Surround Sound

This is the live document - a legendary engagement at the Pawnshop club in Stockholm, Sweden. Featured are Arne Domnerus (doubling on alto and clarinet), pianist Bengt Hallberg, vibraphonist Lars Erstrand, bassist Georg Riedel and drummer Egil Johansen. They mostly stick to swing standards, recalling the groups of Benny Goodman and Lionel Hampton.

To celebrate the 30th anniversary of the finest jazz audiophile albums ever made, JAZZ AT THE PAWNSHOP has been transferred to the finest available digital audio format – SACD. For the first time, the complete and legendary recordings are collected in a three disc release with full documentation and photos. Originally recorded in Stockholm in December 1976 by famed recording engineer Gert Palmcrantz, Jazz at the Pawnshop featured revolutionary audio recording techniques and jazz improvisation at its very best. The group, performing in the Pawnshop jazz club, was led by alto saxophone player Arne Domnérus, who was once described by Charlie Parker as “a very good player, almost as good as me.” Pianist Bengt Hallberg had impressed Stan Getz when moving through the strangest of keys without any effort, and the rhythm section of bass player Georg Riedel and drummer Egil Johansen was the greatest in Sweden at the time. The music swings and cooks through well-known and loved songs such as “In a Mellow Tone,” “Mood Indigo,” “High Life,” “Take Five” and a string of other jazz favorites. If you’re looking for the definitive issue of one of the critically-acclaimed audiophile albums in history – here it is. Treat yourself to a once-in-a-lifetime musical experience.

Tracklist:

DISC 1:

01. Limehouse Blues
02. I'm Confessin'
03. High Life
04. Jeep's Blues
05. Lady Be Good
06. Take Five
07. Everything Happens To Me
08. Barbados
09. Stuffy

foobar2000 1.5.5 / Dynamic Range Meter 1.1.1

––––––––––––––––––––––––––––––––––––––––
Analyzed: Domnérus, Hallberg, Erstrand, Riedel, Johansen / Jazz at the Pawnshop
––––––––––––––––––––––––––––––––––––––––

DR Peak RMS Duration Track
––––––––––––––––––––––––––––––––––––––––
DR11 -7.62 dB -29.42 dB 10:12 01-Limehouse Blues
DR11 -10.05 dB -31.67 dB 8:01 02-I'm Confessin'
DR11 -7.09 dB -27.60 dB 7:12 03-High Life
DR13 -8.63 dB -34.02 dB 6:58 04-Jeep's Blues
DR11 -9.24 dB -31.38 dB 9:15 05-Lady Be Good
DR13 -4.90 dB -28.60 dB 6:58 06-Take Five
DR12 -9.14 dB -31.92 dB 5:14 07-Everything Happens To Me
DR13 -6.93 dB -29.71 dB 8:13 08-Barbados
DR11 -10.09 dB -30.91 dB 7:09 09-Stuffy
––––––––––––––––––––––––––––––––––––––––

Number of tracks: 9
Official DR value: DR12

Samplerate: 2822400 Hz / PCM Samplerate: 176400 Hz
Channels: 5
Bits per sample: 24
Bitrate: 14112 kbps
Codec: DST64
================================================================================

––––––––––––––––––––––––––––––––––––––––
Analyzed: Domnérus, Hallberg, Erstrand, Riedel, Johansen / Jazz at the Pawnshop
––––––––––––––––––––––––––––––––––––––––

DR Peak RMS Duration Track
––––––––––––––––––––––––––––––––––––––––
DR14 -7.04 dB -25.33 dB 10:12 01-Limehouse Blues
DR14 -9.90 dB -27.78 dB 8:01 02-I'm Confessin'
DR14 -6.93 dB -23.40 dB 7:12 03-High Life
DR16 -7.39 dB -29.89 dB 6:58 04-Jeep's Blues
DR15 -8.47 dB -27.38 dB 9:15 05-Lady Be Good
DR17 -4.39 dB -24.37 dB 6:58 06-Take Five
DR15 -8.80 dB -27.75 dB 5:14 07-Everything Happens To Me
DR16 -6.60 dB -25.42 dB 8:13 08-Barbados
DR14 -8.58 dB -26.57 dB 7:09 09-Stuffy
––––––––––––––––––––––––––––––––––––––––

Number of tracks: 9
Official DR value: DR15

Samplerate: 2822400 Hz / PCM Samplerate: 176400 Hz
Channels: 2
Bits per sample: 24
Bitrate: 5645 kbps
Codec: DST64



DISC 2:
01. The Wizard Of Oz: Over The Rainbow
02. Now's The Time
03. Out Of Nowhere
04. Take The A Train
05. Here's That Rainy Day
06. Struttin' With Some Barbeque
07. Poor Butterfly
08. Exactly Like You
09. Jeepers Creepers
10. How High The Moon
11. Things Ain't What They Used To Be

foobar2000 1.5.5 / Dynamic Range Meter 1.1.1

––––––––––––––––––––––––––––––––––––––––
Analyzed: ? / Jazz at the Pawnshop 2
––––––––––––––––––––––––––––––––––––––––

DR Peak RMS Duration Track
––––––––––––––––––––––––––––––––––––––––
DR12 -5.53 dB -29.01 dB 7:16 01-Jazz at the Pawnshop 2
DR12 -7.14 dB -28.70 dB 9:21 02-Jazz at the Pawnshop 2
DR12 -6.52 dB -28.39 dB 7:55 03-Jazz at the Pawnshop 2
DR11 -8.02 dB -28.60 dB 9:34 04-Jazz at the Pawnshop 2
DR11 -7.54 dB -29.54 dB 5:31 05-Jazz at the Pawnshop 2
DR12 -5.30 dB -27.53 dB 6:43 06-Jazz at the Pawnshop 2
DR11 -8.27 dB -30.81 dB 3:56 07-Jazz at the Pawnshop 2
DR12 -6.11 dB -29.00 dB 6:05 08-Jazz at the Pawnshop 2
DR11 -6.14 dB -27.26 dB 5:07 09-Jazz at the Pawnshop 2
DR10 -8.37 dB -28.48 dB 6:29 10-Jazz at the Pawnshop 2
DR12 -5.91 dB -28.72 dB 8:59 11-Jazz at the Pawnshop 2
––––––––––––––––––––––––––––––––––––––––

Number of tracks: 11
Official DR value: DR11

Samplerate: 2822400 Hz / PCM Samplerate: 176400 Hz
Channels: 5
Bits per sample: 24
Bitrate: 14112 kbps
Codec: DST64
================================================================================

––––––––––––––––––––––––––––––––––––––––
Analyzed: ? / Jazz at the Pawnshop 2
––––––––––––––––––––––––––––––––––––––––

DR Peak RMS Duration Track
––––––––––––––––––––––––––––––––––––––––
DR15 -4.60 dB -24.30 dB 7:16 01-Jazz at the Pawnshop 2
DR15 -6.10 dB -23.99 dB 9:21 02-Jazz at the Pawnshop 2
DR16 -5.40 dB -23.73 dB 7:55 03-Jazz at the Pawnshop 2
DR14 -7.25 dB -23.91 dB 9:34 04-Jazz at the Pawnshop 2
DR14 -6.89 dB -24.72 dB 5:31 05-Jazz at the Pawnshop 2
DR16 -4.04 dB -22.79 dB 6:43 06-Jazz at the Pawnshop 2
DR15 -7.07 dB -25.95 dB 3:56 07-Jazz at the Pawnshop 2
DR15 -4.78 dB -24.28 dB 6:05 08-Jazz at the Pawnshop 2
DR14 -5.39 dB -22.65 dB 5:07 09-Jazz at the Pawnshop 2
DR12 -8.24 dB -23.88 dB 6:29 10-Jazz at the Pawnshop 2
DR16 -4.72 dB -24.04 dB 8:59 11-Jazz at the Pawnshop 2
––––––––––––––––––––––––––––––––––––––––

Number of tracks: 11
Official DR value: DR15

Samplerate: 2822400 Hz / PCM Samplerate: 176400 Hz
Channels: 2
Bits per sample: 24
Bitrate: 5645 kbps
Codec: DST64



DISC 3:
01. In a Mellow Tone
02. Gubben och Källingen
03. Nancy with the Laughing Face
04. Struttin' with some Barbecue
05. It Don't Mean a Thing
06. Mood Indigo
07. Jeep's Blues
08. High Life (take 2)

foobar2000 1.5.5 / Dynamic Range Meter 1.1.1

––––––––––––––––––––––––––––––––––––––––
Analyzed: ? / Jazz at the Pawnshop Vol. 3
––––––––––––––––––––––––––––––––––––––––

DR Peak RMS Duration Track
––––––––––––––––––––––––––––––––––––––––
DR12 -7.46 dB -30.60 dB 11:16 01-In a Mellow Tone
DR12 -8.48 dB -32.94 dB 7:25 02-Gubben och Källingen
DR14 -9.95 dB -36.14 dB 6:28 03-Nancy with the Laughing Face
DR11 -8.91 dB -31.62 dB 12:13 04-Struttin' with some Barbecue
DR14 -6.01 dB -32.88 dB 3:11 05-It Don't Mean a Thing
DR11 -10.19 dB -31.44 dB 6:06 06-Mood Indigo
DR14 -9.88 dB -35.86 dB 14:16 07-Jeep's Blues
DR13 -6.07 dB -30.92 dB 6:00 08-High Life (take 2)
––––––––––––––––––––––––––––––––––––––––

Number of tracks: 8
Official DR value: DR13

Samplerate: 2822400 Hz / PCM Samplerate: 176400 Hz
Channels: 5
Bits per sample: 24
Bitrate: 14112 kbps
Codec: DST64
================================================================================

––––––––––––––––––––––––––––––––––––––––
Analyzed: ? / Jazz at the Pawnshop Vol. 3
––––––––––––––––––––––––––––––––––––––––

DR Peak RMS Duration Track
––––––––––––––––––––––––––––––––––––––––
DR15 -6.66 dB -26.36 dB 11:16 01-In a Mellow Tone
DR16 -8.32 dB -28.55 dB 7:25 02-Gubben och Källingen
DR18 -9.07 dB -31.74 dB 6:28 03-Nancy with the Laughing Face
DR15 -8.19 dB -27.32 dB 12:13 04-Struttin' with some Barbecue
DR18 -5.20 dB -28.48 dB 3:11 05-It Don't Mean a Thing
DR14 -9.79 dB -27.13 dB 6:06 06-Mood Indigo
DR17 -9.23 dB -31.63 dB 14:16 07-Jeep's Blues
DR17 -5.26 dB -26.55 dB 6:00 08-High Life (take 2)
––––––––––––––––––––––––––––––––––––––––

Number of tracks: 8
Official DR value: DR16

Samplerate: 2822400 Hz / PCM Samplerate: 176400 Hz
Channels: 2
Bits per sample: 24
Bitrate: 5645 kbps
Codec: DST64


Thanks to grillbrill!
Uncompressed SACD ISO size > 3,21 + 3,94 + 3,1 GB
>