Jennifer Rush - Heart Over Mind (CBS 450470 1) (GER 1987) (Vinyl 24-96 & 16-44.1)

Posted By: luckburz
Jennifer Rush - Heart Over Mind (CBS 450470 1) (GER 1987) (Vinyl 24-96 & 16-44.1)

Jennifer Rush - Heart Over Mind
FLAC | Artwork | 24Bit 96kHz: 943 MB | 16Bit 44.1kHz: 315 MB
Cat#: CBS 450470 1 | Country/Year: Germany 1987
Genre: Pop, Pop Rock | Hoster: Hotfile/Filesonic

MD5 [X] FFP [] CUE [] LOG [] INFO TEXT [X] ARTWORK [X]

webfind [] selfrip [X]

Jennifer Rush - Heart Over Mind (CBS 450470 1) (GER 1987) (Vinyl 24-96 & 16-44.1)


Jennifer Rush - Heart Over Mind (CBS 450470 1) (GER 1987) (Vinyl 24-96 & 16-44.1)





Info:

Jennifer Rush - Heart Over Mind

Label: CBS
Catalog#: CBS 450470 1
Format: Vinyl, LP, Album
Country: Germany
Released: 1987
Genre: Electronic, Pop, Rock
Style: Pop Rock, Synth-pop

Tracklist:

A1 I Come Undone 4:05
A2 Down To You 4:27
A3 Heart Over Mind 4:07
A4 Search The Sky 4:35
A5 Flames Of Paradise 4:37
Vocals - Elton John

B1 Love Of A Stranger 4:01
B2 Heart Wars 3:14
B3 Stronghold 4:23
B4 Sidekick 4:06
B5 Call My Name 4:11

Discogs Url: http://www.discogs.com/release/718377
Wikipedia Url: http://en.wikipedia.org/wiki/Heart_Over_Mind

Heart Over Mind is the third album by American singer Jennifer Rush. It was released in 1987 and featured the hit "Flames of Paradise" (a duet with Elton John).
With her first two albums being recorded in Germany and Rush experiencing much success in Europe, she decided to relocate to the US for her next album. Working with writers and producers such as Harold Faltermeyer and Michael Bolton, this album would go on to be one of the most successful of Rush's career.

Released in early 1987, the first single was the European hit "I Come Undone". However it was the second single release which the record company were more excited about - "Flames of Paradise", a duet with Elton John. The song became Rush's first top 40 success in the US as well as a hit in Europe, although smaller than expected in the UK, after predictions of it reaching No.1 by both Smash Hits and Number One Magazines. The album itself boasted a host of power ballads and uptempo pop/rock tunes with high production values and went on to reach No.1 in Germany for 9 weeks, remaining on the chart for over a year. It also reached No.1 in Switzerland. In the US the album peaked at No.118 and No.48 in the UK. A third single "Heart Over Mind" duly became another hit in Europe and also hit the US Club Chart, peaking at No.33. wikipedia
#


=Hardware=
LP>
Shure M97xE>
Dual CS 505-3>
Handcrafted low capacitance custom cables, teflonĀ® insulated & silver-plated coaxial conductors>
Kenwood C1 Custom Revision I>
- Phono Stage input and RIAA equalisation capacitors replaced by Styroflex and Polypropylen types resp.
- Electrolytic capacitors not mounted by manufacturer onto the RIAA stage power Supply refitted (Philips NOS types)
- All electrolytic capacitors in signal chain replaced by foil capacitors
- All old JRC OpAmps replaced by Burr Brown (Phono Stage) and Analog Devices OpAmps resp.>
Handcrafted low capacitance custom cables, polyethylene insulated twinaxial conductors>
Audiotrak Prodigy 7.1 HiFi w/ AD712 OpAmps @ 24/96>
HDD
=Software=
Adobe Audition 3
ClickRepair
TraderĀ“s Little Helper (FLAC)
+16Bit Version:
Weiss Saracon 01.61-27
Dither: POWr3

Date of rip: 2011-02-22
Please keep the info sheet included if you share this!



Links:










thanks to aksman and dr. robert for helping me out with this!

–––––––––––––––––––––––––––––––––––––––––––––––
Analyzed folder: F:\=== VINYL RIPS ===\Jennifer Rush - Heart Over Mind (CBS 450470 1) (GER 1987) (Vinyl 16-44.1)\16Bit\
–––––––––––––––––––––––––––––––––––––––––––––––
DR Peak RMS Filename
–––––––––––––––––––––––––––––––––––––––––––––––

DR13 -1.61 dB -17.10 dB A1 - I Come Undone.wav
DR12 -2.57 dB -16.52 dB A2 - Down To You.wav
DR12 -2.33 dB -16.82 dB A3 - Heart Over Mind.wav
DR13 -4.18 dB -19.54 dB A4 - Search The Sky.wav
DR12 -3.29 dB -16.75 dB A5 - Flames Of Paradise.wav
DR12 -3.05 dB -17.11 dB B1 - Love Of A Stranger.wav
DR12 -2.40 dB -16.43 dB B2 - Heart Wars .wav
DR12 -1.73 dB -16.90 dB B3 - Stronghold.wav
DR13 -2.51 dB -16.74 dB B4 - Sidekick.wav
DR13 -3.49 dB -18.46 dB B5 - Call My Name.wav
–––––––––––––––––––––––––––––––––––––––––––––––

Number of files: 10
Official DR value: DR12

==============================================================================================







Password:

finest-hq-audio



Check my blog for other lossless uploads:

http://www.avaxhome.ws/blogs/luckburz