John Di Martino's Romantic Jazz Trio - The Sweetest Sound (2004) [Japan 2018] SACD ISO + Hi-Res FLAC

Posted By: HDAtall
John Di Martino's Romantic Jazz Trio - The Sweetest Sound (2004) [Japan 2018] SACD ISO + Hi-Res FLAC

John Di Martino's Romantic Jazz Trio - The Sweetest Sound (2004) [Japan 2018]
SACD Rip | SACD ISO | DSD64 2.0 > 1-bit/2.8224 MHz | 65:37 minutes | Front/Rear Covers | 1,96 GB
or FLAC(converted with foobar2000 to tracks) 24bit/88,2 kHz | Front/Rear Covers | 1,35 GB

Multiple Grammy nominee John Di Martino–composer, arranger, pianist–has recorded many albums for Venus Records with his Romantic Jazz Trio. Noted for his versatility, John has performed and recorded with such notables as Kenny Burrell, James Moody, Joe Lovano, David "Fat Head" Newman, Pat Martino, Paquito D'Rivera and Houston Person.

In his time on the New York scene pianist John di Martino has established a widely respected reputation as an adaptable straight-ahead player, a sensitive and sought-after accompanist of singers, and, having worked in the bands of Ray Barretto and Bobby Sanabria, among others, a brilliant Latin jazz keyboard artist. How wonderful it is that the versatile di Martino, at last, has gotten the chance to highlight his many gifts in a classic trio setting with two exemplary associates. Ugonna Okegwo is one of the most active freelance bassists working today, and with good reason. For over four decades Grady Tate has served as 'the musician's drummer,' having backed an astounding array of instrumental and vocal talent. Di Martino presents Tate with a rhythmic tour de force on the opening track, infusing Ernesto Lecuona's 'La Comparsa' with a New Orleans street beat. Two other Cuban standards, the rumba 'Drume Negrita' and the bolero 'Historia de un Amor,' receive more traditional treatments, revealing di Martino's experience in and regard for the genre. Jazz musicians know that 'My Melancholy Baby' is one of those tunes—OK, you all may roll your eyes now—but the pianist, supported by Okegwo's clean two-beat feel and Tate's clipped, tightly closed hi-hat time, paraphrases the shopworn melody without a hint of irony or condescension. The trio's handling of 'And I Love Her,' leisurely and languid, until suddenly energized in the coda, demonstrates that there still are many riches left to mine in the Beatles' songbook. Di Martino seems to take inspiration from the title of Luis Bonfa's bossa nova, 'The Gentle Rain,' employing a light touch that makes each notes fall like drops of rain. This lovely track also offers up still more joys of Grady Tate, whose subtle brush work is, at times, more felt than heard. He truly is the 'anti-Buddy Rich,' making his presence known, not as an overpowering or dominating force in the ensemble, or even as a soloist (although he is a wonderful one), but by what he can contribute to enhance the collective performance. You may not always notice Grady Tate when he is there, but you miss him when he is not. The same can be said of Ugonna Okegwo, who, on a straight-ahead, unpretentious treatment of Richard Rodgers' 'The Sweetest Sound,' does exactly what a bassist should do in a trio setting, working in close tandem with di Martino, strengthening and supporting the pianist's elegantly swinging lines. The romanticism of 'John di Martino’s Romantic Jazz Trio' is unbound in 'The Things I Love,' based on a theme by the ultimate romantic, Tchaikovsky, but discreet touches of the blues help keep it real. At over nine minutes, the CD's longest track, 'You Must Believe in Spring,' affords di Martino an opportunity for extended, inspired exploration. Especially instructive is his use of block chords, richly voiced, effectively placed, always an enhancement, never a cliché or a crutch. John di Martino's Romantic Jazz Trio is, in fact, a recording session-generated group, but after hearing this CD you just may think it was a permanent working unit—and you'll wish it was.

Tracklist:

01. La Comparsa
02. My Melancholy Baby
03. And I Love Her
04. The Gentle Rain
05. The Sweetest Sound
06. Drume Negrita
07. In My Solitude
08. The Lamp Is Low
09. The Things I Love
10. You Must Belive In Spring
11. Historia De Un Amor

Produced, Mixed & Mastered by Tetsuo Hara. Engineered by David Darlington.
Recorded on August 30-31, 2003 at Avatar Studio in New York.
Venus Hyper Magnum Sound Direct Mix. VENUS Japan # VHGD-268.

Personnel
John Di Martino - piano
Ugonna Okegwo - bass
Grady Tate - drums

foobar2000 1.3.17 / Dynamic Range Meter 1.1.1

––––––––––––––––––––––––––––––––––––––––
Analyzed: ROMANTIC JAZZ TRIO / The Sweetest Sound
––––––––––––––––––––––––––––––––––––––––

DR Peak RMS Duration Track
––––––––––––––––––––––––––––––––––––––––
DR7 -5.25 dB -13.28 dB 3:55 01-La Comparsa
DR6 -5.22 dB -13.97 dB 6:44 02-My Melancholy Baby
DR6 -4.97 dB -12.97 dB 7:14 03-And I Love Her
DR9 -5.46 dB -16.98 dB 6:44 04-The Gentle Rain
DR6 -5.35 dB -13.09 dB 5:02 05-The Sweetest Sound
DR8 -5.38 dB -14.45 dB 5:01 06-Drume Negrita
DR9 -5.40 dB -16.49 dB 5:19 07-In My Solitude
DR6 -5.02 dB -12.77 dB 4:44 08-The Lamp Is Low
DR7 -5.39 dB -14.41 dB 6:23 09-The Things I Love
DR6 -5.09 dB -13.45 dB 9:17 10-You Must Belive In Spring
DR9 -5.47 dB -17.78 dB 5:14 11-Historia De Un Amor
––––––––––––––––––––––––––––––––––––––––

Number of tracks: 11
Official DR value: DR7

Samplerate: 2822400 Hz / PCM Samplerate: 88200 Hz
Channels: 2
Bits per sample: 1
Bitrate: 5645 kbps
Codec: DSD64


Thanks to jazzyman!
Uncompressed SACD ISO size > 2,63 GB

Romantic Jazz Trio on SACDs
>