Tags
Language
Tags
June 2024
Su Mo Tu We Th Fr Sa
26 27 28 29 30 31 1
2 3 4 5 6 7 8
9 10 11 12 13 14 15
16 17 18 19 20 21 22
23 24 25 26 27 28 29
30 1 2 3 4 5 6

John Mayer - The Search For Everything (2017) [Official Digital Download 24-bit/96kHz]

Posted By: HDV
John Mayer - The Search For Everything (2017) [Official Digital Download 24-bit/96kHz]

John Mayer - The Search For Everything (2017)
FLAC (tracks) 24-bit/96 kHz | Time - 43:54 minutes | 925 MB
Studio Master, Official Digital Download | Artwork: Front cover

John Mayer is back with his first full-length album in more than three years. Mayer's 12-track set "The Search for Everything" includes four previously-unreleased works and recordings from the first two "Wave" EPs, which both bowed at No.1 on Billboard's Top Rock Albums chart earlier this year.

John Mayer first teased his seventh album, The Search for Everything, through a pair of EPs that contained eight of the record's 12 songs. It was a sly way for the singer/songwriter to ease back into his soulful side, a sound he largely abandoned during an extended dalliance with Laurel Canyon country-rock – an infatuation that culminated in his position as a substitute Jerry Garcia in the Grateful Dead satellite group Dead & Company. Although it's ostensibly a breakup album, The Search for Everything doesn't feel haunted: Mayer glides through the record so smoothly, the supple sound seems almost insouciant. It is also quite alluring. Mayer may be reverting to the sound of Continuum, alternating between R&B workouts and soul-baring ballads, but forward movement is the unifying sentiment here. The nimble funk opener, "Moving on and Getting Over," makes that plain, as does the plaintive "Changing," which summarizes his plight simply: "I may be old and I may be young/But I am not done changing." Some of Mayer's change can be charted in how he hangs onto his romantic past, burying some of his heartache on the deceptively exuberant opener, "Still Feel Like Your Man," and offering a bittersweet denouement in the admission "You're Gonna Live Forever in Me." Mirroring his emotional maturity is a sharpening of his songcraft. While he's always shown a knack for slow-burning soul, the progression and arrangement of the smoldering "Rosie" feel as sophisticated as the lithe grace of "Emoji of a Wave," while "Roll It on Home," an easy-rolling country-rocker that tips its hat to the Dead, shows how he absorbed the lessons of his Laurel Canyon detour of Born and Raised and Paradise Valley. Those two records, along with such earlier workouts as Try! John Mayer Trio Live in Concert, reveal the extent of Mayer's ambition, but The Search for Everything succeeds because he's not donning a new costume: instead, he's settling into a groove he can claim as his own, and it feels like he's at home.

Tracklist:

01 - Still Feel Like Your Man
02 - Emoji Of A Wave
03 - Helpless
04 - Love On The Weekend
05 - In The Blood
06 - Changing
07 - Theme From "The Search For Everything"
08 - Moving On And Getting Over
09 - Never On The Day You Leave
10 - Rosie
11 - Roll It On Home
12 - You're Gonna Live Forever In Me

Analyzed: John Mayer / The Search For Everything
––––––––––––––––––––––––––––––––––––––––

DR Peak RMS Duration Track
––––––––––––––––––––––––––––––––––––––––
DR6 -0.08 dB -8.18 dB 3:55 01-Still Feel Like Your Man
DR8 -0.08 dB -10.85 dB 4:00 02-Emoji Of A Wave
DR6 -0.08 dB -7.76 dB 4:09 03-Helpless
DR6 -0.08 dB -7.86 dB 3:32 04-Love On The Weekend
DR6 -0.18 dB -7.60 dB 4:05 05-In The Blood
DR7 -0.06 dB -10.59 dB 3:33 06-Changing
DR8 -0.08 dB -10.95 dB 1:54 07-Theme From "The Search For Everything"
DR7 -0.08 dB -9.18 dB 4:25 08-Moving On And Getting Over
DR7 -0.08 dB -8.76 dB 3:44 09-Never On The Day You Leave
DR6 -0.08 dB -8.14 dB 4:03 10-Rosie
DR5 -0.38 dB -6.74 dB 3:24 11-Roll It On Home
DR11 -0.40 dB -13.90 dB 3:10 12-You're Gonna Live Forever In Me
––––––––––––––––––––––––––––––––––––––––

Number of tracks: 12
Official DR value: DR7

Samplerate: 96000 Hz
Channels: 2
Bits per sample: 24
Bitrate: 2633 kbps
Codec: FLAC
================================================================================


Thanks to the Original customer!