Tags
Language
Tags

Jordan Rakei - What We Call Life (2021) [Official Digital Download]

Posted By: delpotro
Jordan Rakei - What We Call Life (2021) [Official Digital Download]

Jordan Rakei - What We Call Life (2021)
FLAC (tracks) 24-bit/44,1 kHz | Front Cover | Time - 43:12 minutes | 503 MB
Soul | Label: Ninja Tune, Official Digital Download

Multi-instrumentalist, vocalist, producer, and songwriter Jordan Rakei is back with his fourth studio album. What We Call Life is his most vulnerable and intimate album to date, lyrically and sonically. While the heart of the record will be familiar to fans of his neo-soul and hip-hop-infused work, here Rakei dives deeper into his sound world, merging electronic with acoustic, and rugged grooves with ambient atmospheres, to create something richer, more detailed, and more textural than before. Recommended if you like Arlo Parks, Hiatus Kaiyote, Loyle Carner and Tom Misch.

Tracklist:
1. Family (03:27)
2. Send My Love (04:04)
3. Illusion (03:14)
4. Unguarded (04:14)
5. Clouds (04:12)
6. What We Call Life (03:53)
7. Runaway (03:40)
8. Wings (03:25)
9. Brace (05:44)
10. The Flood (07:15)

foobar2000 1.4.1 / Dynamic Range Meter 1.1.1
log date: 2021-09-16 19:40:32

––––––––––––––––––––––––––––––––––––––––
Analyzed: Jordan Rakei / What We Call Life
––––––––––––––––––––––––––––––––––––––––

DR Peak RMS Duration Track
––––––––––––––––––––––––––––––––––––––––
DR6 -0.30 dB -8.10 dB 3:28 01-Family
DR6 -0.30 dB -7.82 dB 4:05 02-Send My Love
DR5 -0.28 dB -7.70 dB 3:14 03-Illusion
DR6 -0.30 dB -8.60 dB 4:14 04-Unguarded
DR6 -0.30 dB -9.35 dB 4:12 05-Clouds
DR6 -0.30 dB -8.69 dB 3:53 06-What We Call Life
DR6 -0.30 dB -8.13 dB 3:41 07-Runaway
DR5 -0.30 dB -7.29 dB 3:26 08-Wings
DR5 -0.29 dB -6.80 dB 5:44 09-Brace
DR5 -0.30 dB -7.71 dB 7:15 10-The Flood
––––––––––––––––––––––––––––––––––––––––

Number of tracks: 10
Official DR value: DR5

Samplerate: 44100 Hz
Channels: 2
Bits per sample: 24
Bitrate: 1640 kbps
Codec: FLAC
================================================================================


Thanks to the Original customer!