Tags
Language
Tags

Julien Clerc - Les jours heureux (2021) [Official Digital Download]

Posted By: delpotro
Julien Clerc - Les jours heureux (2021) [Official Digital Download]

Julien Clerc - Les jours heureux (2021)
FLAC (tracks) 24-bit/44,1 kHz | Front Cover | Time - 49:13 minutes | 535 MB
Pop, Chanson | Label: Play Two, Official Digital Download

Julien Clerc revient en musique et sur scène avec « Les Jours Heureux », un nouveau projet dans lequel il reprend des chansons d’artistes qui l’ont inspiré : Barbara, Gilbert Bécaud, Yves Montand, Jacques Brel, Charles Trenet… Essentiel et magique! Julien Clerc sera au Palais des Congrès, Paris, les 10, 11 et 12 décembre 2021 et en tournée dans toute la France l’année prochaine.

Tracklist:
1. Boum ! (02:41)
2. For me formidable (02:29)
3. Mon manège à moi (02:55)
4. A bicyclette (02:40)
5. L'important c'est la rose (03:48)
6. Joyeux Noël (03:54)
7. Vingt ans (02:27)
8. Que c'est triste Venise (02:46)
9. J'ai ta main (02:58)
10. Dis, quand reviendras-tu ? (03:21)
11. La valse a mille temps (04:15)
12. Je reviens te chercher (03:45)
13. Comme à Ostende (03:34)
14. Vienne (07:34)

foobar2000 1.4.1 / Dynamic Range Meter 1.1.1
log date: 2021-11-27 14:54:23

––––––––––––––––––––––––––––––––––––––––
Analyzed: Julien Clerc / Les jours heureux
––––––––––––––––––––––––––––––––––––––––

DR Peak RMS Duration Track
––––––––––––––––––––––––––––––––––––––––
DR7 0.00 dB -8.36 dB 2:41 01-Boum !
DR7 0.00 dB -8.22 dB 2:30 02-For me formidable
DR7 0.00 dB -8.74 dB 2:56 03-Mon manège à moi
DR8 0.00 dB -9.23 dB 2:40 04-A bicyclette
DR7 0.00 dB -8.13 dB 3:48 05-L'important c'est la rose
DR8 0.00 dB -9.64 dB 3:54 06-Joyeux Noël
DR8 0.00 dB -10.65 dB 2:28 07-Vingt ans
DR8 0.00 dB -9.00 dB 2:47 08-Que c'est triste Venise
DR7 0.00 dB -9.64 dB 2:58 09-J'ai ta main
DR8 0.00 dB -10.09 dB 3:22 10-Dis, quand reviendras-tu ?
DR7 0.00 dB -9.65 dB 4:16 11-La valse a mille temps
DR7 0.00 dB -9.42 dB 3:46 12-Je reviens te chercher
DR8 0.00 dB -9.94 dB 3:35 13-Comme à Ostende
DR8 0.00 dB -11.30 dB 7:34 14-Vienne
––––––––––––––––––––––––––––––––––––––––

Number of tracks: 14
Official DR value: DR7

Samplerate: 44100 Hz
Channels: 2
Bits per sample: 24
Bitrate: 1446 kbps
Codec: FLAC
================================================================================


Thanks to the Original customer!